Сверхъестественное / Supernatural / Сезон: 11 / Серии: 1-23 из 23 (Роберт Сингер, Филип Сгриккиа) [2015-2016, мистика, ужасы, триллер, фэнтези, драма, детектив, BDRip 720p] MVO (NovaFilm & NewStudio) + MVO (LostFilm) + Original + Subs (Rus, Eng) 

Цитировать
-Сверхъестественное / Supernatural11 сезон- Год выпуска: 2015-2016
Страна: США
Жанр: мистика, ужасы, триллер, фэнтези, драма, детектив
Продолжительность одной серии: ~ 43 минуты-Перевод 1: Профессиональный (многоголосый закадровый) NovaFilm & NewStudio
Перевод 2: Профессиональный (многоголосый закадровый) LostFilm-Режиссёры: Роберт Сингер, Филип Сгриккиа и другие.
В ролях: Джаред Падалеки, Дженсен Эклз, Миша Коллинз, Марк Шеппард, Эмили Суоллоу, Рут Коннелл, и другие.-Описание: В одиннадцатом сезоне Сэм и Дин Винчестеры оказываются в небывалой опасности, поскольку противостоят Тьме - новому злу, выпущенному на Землю. Они продолжают охоту на монстров, сражаясь с обычными оборотнями, черноглазыми демонами и даже мстительным призраком в чучельном заячьем костюме. Однако, основная цель: уничтожить Тьму.-Все раздачи сериала HD | Сэмпл-Качество: BDRip 720p
Контейнер: MKV
Видео: 1280x720, 23.976 fps, crf=16, ~ 6500 - 8000 kbps avg
Аудио 1: AC3 5.1, 48 KHz, 384 kbps
Аудио 2: AC3 5.1, 48 KHz, 384 kbps
Аудио 3: AC3 5.1, 48 KHz, 640 kbps
Субтитры: Русские (форсированные), русские (Злюка), английские
-Реклама:
Звуковая (в начале и конце серии)

О релизе

Синхронизация русских субтитров от Злюки: Stiles (RG SerialS)
Синхронизация дорожек NovaFilm & NewStudio и LostFilm: Stiles (RG SerialS)

Список серий

11.01 "Из тьмы да в полымя" (англ. "Out of the Darkness, Into the Fire")
11.02 "Форма и пустота" (англ. "Form and Void")
11.03 "Дурное семя" (англ. "The Bad Seed")
11.04 "Детка" (англ. "Baby")
11.05 "Худенькая Лиззи" (англ. "Thin Lizzie")
11.06 "Наш маленький мир" (англ. "Our Little World")
11.07 "Плюшевый" (англ. "Plush")
11.08 "Всего лишь мое воображение" (англ. "Just My Imagination")
11.09 "О, брат, где же ты?" (англ. "O Brother, Where Are Thou")
11.10 "Дьявол в деталях" (англ. "The Devil in the Details")
11.11 "В неизвестность" (англ. "Into the Mystic")
11.12 "Не забывай меня" (англ. "Don't You Forget About Me")
11.13 "Любовь ранит" (англ. "Love Hurts")
11.14 "Сосуд" (англ. "The Vessel")
11.15 "Вне циновки" (англ. "Beyond the Mat")
11.16 "Надежное место встречи" (англ. "Safe House")
11.17 "Красное мясо" (англ. "Red Meat")
11.18 "Адский ангел" (англ. "Hell's Angel")
11.19 "Трещотки" (англ. "The Chitters")
11.20 "Не называйте меня Ширли" (англ. "Don't Call Me Shurley")
11.21 "Все в семье" (англ. "All in the Family")
11.22 "Горсточка счастливцев" (англ. "We Happy Few")
11.23 "Альфа и Омега" (англ. "Alpha and Omega")

MediaInfo

General
Format: Matroska
Format version: Version 2
File size: 2.45 GiB
Duration: 42 min 28 s
Overall bit rate: 8 249 kb/s
Encoded date: UTC 2016-11-18 17:33:15
Writing application: mkvmerge v5.8.0 ('No Sleep / Pillow') built on Sep 2 2012 15:37:04
Writing library: libebml v1.2.3 + libmatroska v1.3.0
Video
ID: 1
Format: AVC
Format/Info: Advanced Video Codec
Format profile: High@L4.1
Format settings, CABAC: Yes
Format settings, ReFrames: 5 frames
Codec ID: V_MPEG4/ISO/AVC
Duration: 42 min 28 s
Bit rate: 6 677 kb/s
Width: 1 280 pixels
Height: 720 pixels
Display aspect ratio: 16:9
Frame rate mode: Constant
Frame rate: 23.976 (24000/1001) FPS
Color space: YUV
Chroma subsampling: 4:2:0
Bit depth: 8 bits
Scan type: Progressive
Bits/(Pixel*Frame): 0.302
Stream size: 1.98 GiB (81%)
Title: 11.01 "Из тьмы да в полымя" (англ. "Out of the Darkness, Into the Fire")
Writing library: x264 core 148 r2638 7599210
Encoding settings: cabac=1 / ref=5 / deblock=1:0:0 / analyse=0x3:0x113 / me=umh / subme=10 / psy=1 / psy_rd=1.00:0.00 / mixed_ref=1 / me_range=32 / chroma_me=1 / trellis=2 / 8x8dct=1 / cqm=0 / deadzone=21,11 / fast_pskip=0 / chroma_qp_offset=-2 / threads=6 / lookahead_threads=1 / sliced_threads=0 / nr=0 / decimate=1 / interlaced=0 / bluray_compat=0 / constrained_intra=0 / bframes=6 / b_pyramid=2 / b_adapt=2 / b_bias=0 / direct=1 / weightb=1 / open_gop=0 / weightp=2 / keyint=240 / keyint_min=23 / scenecut=40 / intra_refresh=0 / rc_lookahead=60 / rc=crf / mbtree=0 / crf=16.0 / qcomp=0.60 / qpmin=0 / qpmax=69 / qpstep=4 / vbv_maxrate=62500 / vbv_bufsize=78125 / crf_max=0.0 / nal_hrd=none / filler=0 / ip_ratio=1.40 / pb_ratio=1.30 / aq=1:1.00
Language: English
Default: Yes
Forced: No
Audio #1
ID: 2
Format: AC-3
Format/Info: Audio Coding 3
Mode extension: CM (complete main)
Format settings, Endianness: Big
Codec ID: A_AC3
Duration: 42 min 28 s
Bit rate mode: Constant
Bit rate: 384 kb/s
Channel(s): 6 channels
Channel positions: Front: L C R, Side: L R, LFE
Sampling rate: 48.0 kHz
Frame rate: 31.250 FPS (1536 spf)
Bit depth: 16 bits
Compression mode: Lossy
Stream size: 117 MiB (5%)
Title: DD 5.1 @ 384 kbps @ NovaFilm & NewStudio
Language: Russian
Default: Yes
Forced: No
Audio #2
ID : 3
Format: AC-3
Format/Info: Audio Coding 3
Mode extension: CM (complete main)
Format settings, Endianness: Big
Codec ID: A_AC3
Duration: 42 min 28 s
Bit rate mode: Constant
Bit rate: 384 kb/s
Channel(s): 6 channels
Channel positions: Front: L C R, Side: L R, LFE
Sampling rate: 48.0 kHz
Frame rate: 31.250 FPS (1536 spf)
Bit depth: 16 bits
Compression mode: Lossy
Stream size: 117 MiB (5%)
Title: DD 5.1 @ 384 kbps @ LostFilm
Language: Russian
Default: No
Forced: No
Audio #3
ID: 4
Format: AC-3
Format/Info: Audio Coding 3
Mode extension: CM (complete main)
Format settings, Endianness: Big
Codec ID: A_AC3
Duration: 42 min 28 s
Bit rate mode: Constant
Bit rate: 640 kb/s
Channel(s): 6 channels
Channel positions: Front: L C R, Side: L R, LFE
Sampling rate: 48.0 kHz
Frame rate: 31.250 FPS (1536 spf)
Bit depth: 16 bits
Compression mode: Lossy
Stream size: 194 MiB (8%)
Title: DD 5.1 @ 640 kbps @ Original
Language: English
Default: No
Forced: No
Text #1
ID: 5
Format: UTF-8
Codec ID: S_TEXT/UTF8
Codec ID/Info: UTF-8 Plain Text
Title: Russian @ SRT @ Злюка
Language: Russian
Default: No
Forced: No
Text #2
ID: 6
Format: UTF-8
Codec ID: S_TEXT/UTF8
Codec ID/Info: UTF-8 Plain Text
Title: English @ SRT
Language: English
Default: No
Forced: No

Скриншоты

Вы не можете начинать темы
Вы не можете отвечать на сообщения
Вы не можете редактировать свои сообщения
Вы не можете удалять свои сообщения
Вы не можете голосовать в опросах
Вы не можете прикреплять файлы к сообщениям
Вы можете скачивать файлы
Sitemap