Сверхъестественное / Supernatural / Сезон: 12 / Серии: 1-23 из 23 (Филип Сгриккиа, Джеймс Л. Конуэй, Дженсен Эклс) [2016, США, ужасы, фэнтези, триллер, драма, детектив., HDTVRip 720p] MVO (Jaskier) + Original 

Цитировать
Сверхъестественное / Supernatural -Оригинальное название: Supernatural
Русское название: Сверхъестественное
Год выпуска: 2016
Страна: США
Жанр: Ужасы, фэнтези, триллер, драма, детектив
Продолжительность: ~40:00 мин-Перевод: Профессиональный (многоголосый закадровый) Студия Jaskier
Субтитры: Нет-Режиссёр: Филип Сгриккиа, Джеймс Л. Конуэй, Дженсен Эклс-В ролях: Джаред Падалеки, Дженсен Эклс, Джим Бивер, Миша Коллинз, Джеффри Дин Морган, Женевьев Падалеки, Марк Шеппард, Синди Сэмпсон, Саманта Феррис, Митч Пилледжи-Описание: Сериал рассказывает о приключениях братьев Сэма и Дина Винчестеров, которые путешествуют по Соединённым Штатам на чёрном автомобиле Chevrolet Impala 1967 года, расследуют паранормальные явления, многие из которых основаны на американских городских легендах и фольклоре, и сражаются с порождениями зла, такими как демоны и призраки.-Сэмпл-Качество: HDTVRip 720
Формат: MKV
Видео кодек: h.264
Аудио кодек: AC3
Видео: AVC, 1280x720 (16:9), 23.976 fps, ~2700kbps ~0.093 bit/pixel-Аудио 1: Dolby AC3 48000Hz stereo 192Kbps Русский
Аудио 2: Dolby AC3 48000Hz 6ch 384Kbps Оригинал (Английский)-

MediaInfo

General
Unique ID                   : 235491437733913274488999831098562546830 (0xB12A004BE1938ECC8F7F2BF250158C8E)
Complete name               : XXXXXXXXXXXXXXXX\Supernatural.S12E01.720p.HDTVRip.Jaskier.Rus.Eng.mkv
Format                      : Matroska
Format version              : Version 4 / Version 2
File size                   : 806 MiB
Duration                    : 42mn 5s
Overall bit rate            : 2 679 Kbps
Encoded date                : UTC 2016-10-15 10:46:24
Writing application         : mkvmerge v8.2.0 ('World of Adventure') 64bit
Writing library             : libebml v1.3.1 + libmatroska v1.4.2
Video
ID                          : 1
Format                      : AVC
Format/Info                 : Advanced Video Codec
Format profile              : High@L4.1
Format settings, CABAC      : Yes
Format settings, ReFrames   : 9 frames
Codec ID                    : V_MPEG4/ISO/AVC
Duration                    : 42mn 5s
Bit rate                    : 2 049 Kbps
Width                       : 1 280 pixels
Height                      : 720 pixels
Display aspect ratio        : 16:9
Frame rate mode             : Constant
Frame rate                  : 23.976 (24000/1001) fps
Color space                 : YUV
Chroma subsampling          : 4:2:0
Bit depth                   : 8 bits
Scan type                   : Progressive
Bits/(Pixel*Frame)          : 0.093
Stream size                 : 617 MiB (77%)
Title                       : Original
Writing library             : x264 core 148 r2721 72d53ab
Encoding settings           : cabac=1 / ref=9 / deblock=1:-2:-2 / analyse=0x3:0x133 / me=umh / subme=10 / psy=1 / psy_rd=1.00:0.00 / mixed_ref=1 / me_range=32 / chroma_me=1 / trellis=2 / 8x8dct=1 / cqm=0 / deadzone=21,11 / fast_pskip=0 / chroma_qp_offset=-2 / threads=20 / lookahead_threads=2 / sliced_threads=0 / nr=0 / decimate=1 / interlaced=0 / bluray_compat=0 / constrained_intra=0 / bframes=5 / b_pyramid=2 / b_adapt=2 / b_bias=0 / direct=3 / weightb=1 / open_gop=0 / weightp=2 / keyint=250 / keyint_min=23 / scenecut=40 / intra_refresh=0 / rc_lookahead=60 / rc=crf / mbtree=1 / crf=18.0 / qcomp=0.60 / qpmin=0 / qpmax=69 / qpstep=4 / ip_ratio=1.40 / aq=1:1.00
Language                    : English
Default                     : Yes
Forced                      : No
Color range                 : Limited
Matrix coefficients         : BT.709
Audio #1
ID                          : 2
Format                      : AC-3
Format/Info                 : Audio Coding 3
Mode extension              : CM (complete main)
Format settings, Endianness : Big
Codec ID                    : A_AC3
Duration                    : 42mn 5s
Bit rate mode               : Constant
Bit rate                    : 192 Kbps
Channel(s)                  : 2 channels
Channel positions           : Front: L R
Sampling rate               : 48.0 KHz
Frame rate                  : 31.250 fps (1536 spf)
Compression mode            : Lossy
Stream size                 : 57.8 MiB (7%)
Title                       : Jaskier
Language                    : Russian
Default                     : Yes
Forced                      : No
Audio #2
ID                          : 3
Format                      : AC-3
Format/Info                 : Audio Coding 3
Mode extension              : CM (complete main)
Format settings, Endianness : Big
Codec ID                    : A_AC3
Duration                    : 42mn 5s
Bit rate mode               : Constant
Bit rate                    : 384 Kbps
Channel(s)                  : 6 channels
Channel positions           : Front: L C R, Side: L R, LFE
Sampling rate               : 48.0 KHz
Frame rate                  : 31.250 fps (1536 spf)
Compression mode            : Lossy
Stream size                 : 116 MiB (14%)
Title                       : Original
Language                    : English
Default                     : No
Forced                      : No

Скриншоты

Внимание! Раздача ведётся путём добавления новых серий.

Внимание! Раздача ведётся путём добавления новых серий; при каждом добавлении создётся новый торрент. Чтобы начать докачку новой серии, пользователям необходимо сделать следующее:
  • Остановить скачивание.
  • Удалить старый торрент у себя из клиента (старые серии удалять не надо).
  • Скачать новый торрент и запустить его у себя в клиенте вместо старого, при этом указать клиенту путь в старую папку куда и должно происходить скачивание новых серий.
    Ваш клиент при этом должен произвести хеширование (проверку) старой папки (если не производит сам - помогите ему сделать это), и будет докачивать только те серии которых у вас ещё нет. Старые серии при этом не удаляются, а продолжают раздаваться!
    Eсли вы уже удалили старые серии, то предотвратить повторную закачку старых серий можно, отжав галочку в соответсвующих местах при запуске нового торрента. По возможности, желательно не удалять старые серии как можно дольше чтобы релизёр не столько продолжал раздавать старые серии, а смог сконцентрироваться на новых.

Ссылка на предыдущие и альтернативные раздачи

http://rutracker.org/forum/tracker.php?f=189,2366,842&nm=Supernatural
Вы не можете начинать темы
Вы не можете отвечать на сообщения
Вы не можете редактировать свои сообщения
Вы не можете удалять свои сообщения
Вы не можете голосовать в опросах
Вы не можете прикреплять файлы к сообщениям
Вы можете скачивать файлы
Sitemap