Сверхъестественное / Supernatural / Сезон: 6 / Серии: 1-22 (22) (Роберт Сингер, Филип Сгриккиа) [2010, США, мистика, ужасы, драма, WEB-DL 720p] MVO (NovaFilm) + Rus subs 

Цитировать
-
Год выпуска: 2010
Страна: США
Жанр: мистика, ужасы, драма
Продолжительность: ~ 00:43:00
Перевод: профессиональный многоголосый закадровый
Русские субтитры: есть, Злюка-Режиссёр: Роберт Сингер-В ролях:
Джаред Падалеки, Дженсен Эклс, Джим Бивер, Миша Коллинз, Джеффри Дин Морган, Женевьев Падалеки, Саманта Феррис, Курт Фуллер, Кэти Кэссиди, Лорен Коэн и др.-Описание:
Сериал рассказывает о приключениях братьев Сэма и Дина Винчестеров, которые путешествуют по Соединённым Штатам на чёрном автомобиле Chevrolet Impala 1967 года, расследуют паранормальные явления, многие из которых основаны на американских городских легендах и фольклоре, и сражаются с порождениями зла, такими как демоны и призраки.-Ссылки: | | -Качество: WEB-DL 720р
Формат: MKV
Видео кодек: H.264
Аудио кодек: AC3
Видео: 1280 ×720 (1.78:1), 23.976 fps 3987 kbps avg, 0,18 bit/pixel
Аудио # 1: Rus 48 kHz, Dolby Digital 2.0 @ 192 kbps (1,2)
Аудио # 1: Rus 48 kHz, Dolby Digital 5.1 @ 384 kbps (3-22)
Аудио # 2: Eng 48 kHz, Dolby Digital 5.1 @ 384 kbps-Релиз:
Перевод: Александр Кошелев(1,2,13-22) \ McGee, Александр Кошелев (3) \ McGee, Beara (4-12)
Редакторы: McGee, Beara (12-22)
Озвучка: Студия «Новамедиа»-

MI

General
Complete name : supernatural.s06e01.webdl.720p.ac3.rus.eng. СПАМ
Format : Matroska
File size : 1.38 GiB
Duration : 42mn 25s
Overall bit rate : 4 655 Kbps
Encoded date : UTC 2010-09-28 12:36:00
Writing application : mkvmerge v4.0.0 ('The Stars were mine') сборка от Jun 6 2010 16:18:42
Writing library : libebml v1.0.0 libmatroska v1.0.0
Video
ID : 1
Format : AVC
Format/Info : Advanced Video Codec
Format profile : High@L3.1
Format settings, CABAC : No
Format settings, ReFrames : 2 frames
Muxing mode : Container profile=Unknown@3.1
Codec ID : V_MPEG4/ISO/AVC
Duration : 42mn 25s
Bit rate : 3 987 Kbps
Width : 1 280 pixels
Height : 720 pixels
Display aspect ratio : 16:9
Frame rate : 23.976 fps
Color space : YUV
Chroma subsampling : 4:2:0
Bit depth : 8 bits
Scan type : Progressive
Bits/(Pixel*Frame) : 0.180
Stream size : 1.18 GiB (86%)
Title : Supernatural - Season 6, Episode 1: Exile On Main St. ("Семейные Узы")
Color primaries : BT.709-5, BT.1361, IEC 61966-2-4, SMPTE RP177
Transfer characteristics : BT.709-5, BT.1361
Matrix coefficients : BT.709-5, BT.1361, IEC 61966-2-4 709, SMPTE RP177
Audio #1
ID : 2
Format : AC-3
Format/Info : Audio Coding 3
Mode extension : CM (complete main)
Codec ID : A_AC3
Duration : 42mn 25s
Bit rate mode : Constant
Bit rate : 192 Kbps
Channel(s) : 2 channels
Channel positions : Front: L R
Sampling rate : 48.0 KHz
Bit depth : 16 bits
Video delay : 2ms
Stream size : 58.3 MiB (4%)
Title : Dolby Digital 2.0 @ 192 kbps
Language : Russian
Audio #2
ID : 3
Format : AC-3
Format/Info : Audio Coding 3
Mode extension : CM (complete main)
Codec ID : A_AC3
Duration : 42mn 25s
Bit rate mode : Constant
Bit rate : 384 Kbps
Channel(s) : 6 channels
Channel positions : Front: L C R, Side: L R, LFE
Sampling rate : 48.0 KHz
Bit depth : 16 bits
Stream size : 117 MiB (8%)
Title : Dolby Digital 5.1 @ 384 kbps
Text
ID : 4
Format : ASS
Codec ID : S_TEXT/ASS
Codec ID/Info : Advanced Sub Station Alpha
Language : Russian

Скриншоты


--

Список эпизодов

  • Exile on Main Street / Семейные Узы
  • Two and a Half Men / Два с Половиной Человека
  • The Third Man / Третий Человек
  • Weekend at Bobby's / Уикенд у Бобби
  • Live Free or Twihard / Крепкий Орешек Сумерек
  • You Can't Handle the Truth / Невыносимая Правда
  • Family Matters / Дела Семейные
  • All Dogs Go To Heaven / Все Собаки Попадают в Рай
  • Clap Your Hands If You Believe / Если Верите, Хлопайте в Ладоши!
  • Caged Heat / Ад за Решеткой
  • Appointment in Samarra / Свидание в Самаре
  • Like a Virgin / Невинность
  • Unforgiven / Непрощенный
  • Mannequin 3: The Reckoning / Манекен 3: Расплата
  • The French Mistake / Французская Оплошность
  • And Then There Were None / И никого не стало
  • My Heart Will Go On / Моё Сердце Биться Не Перестанет
  • Frontierland / Приграничная Страна
  • Mommy Dearest / Любимая Мамочка
  • The Man Who Would Be King / Тот, Кто Хотел Стать Королём
  • Let It Bleed / Да Прольётся Кровь[/color
  • The Man Who Knew Too Much / Тот, Кто Слишком Много Знал
-
Вы не можете начинать темы
Вы не можете отвечать на сообщения
Вы не можете редактировать свои сообщения
Вы не можете удалять свои сообщения
Вы не можете голосовать в опросах
Вы не можете прикреплять файлы к сообщениям
Вы можете скачивать файлы
Sitemap