Сверхъестественное / Supernatural / Сезон: 5 / Серии: 1-22 (22) (Эрик Крипке / Eric Kripke) [2009, США, мистика, ужасы, драма, BDRip 720p](NovaFilm + LostFilm) 

Цитировать
-Сверхъестественное / Supernatural
«It`s a matter of life...and life after death»
Год выпуска: 2009
Страна: США
Жанр: мистика, ужасы, драма
Продолжительность: ~ 45 мин
Перевод: Профессиональный многоголосый закадровый(NovaFilm + LostFilm)
Режиссер: Роберт Сингер
Субтитры: отсутствуют
-В ролях:
Джаред Падалеки, Дженсен Эклс, Джим Бивер, Миша Коллинз, Джеффри Дин Морган, Женевьев Падалеки, Саманта Феррис, Курт Фуллер, Кэти Кэссиди, Лорен Коэн и др.
Описание:
Сериал рассказывает о приключениях братьев Сэма и Дина Винчестеров, которые путешествуют по Соединённым Штатам на чёрном автомобиле Chevrolet Impala 1967 года, расследуют паранормальные явления, многие из которых основаны на американских городских легендах и фольклоре, и сражаются с порождениями зла, такими как демоны и призраки.
-Качество: BDRip 720p
Формат: MKV
Видео кодек: H.264
Аудио кодек: AC3
Видео: AVC at 4 265 Kbps 1280 x 720 (1.778) at 23.976 fps 0.193 bit/pixel
Аудио Rus: AC-3 at 192 Kbps 2 channels, 48.0 KHz(Голоса студии "Новамедиа")
Аудио Rus: AC-3 at 192 Kbps 2 channels, 48.0 KHz(Голоса официального дубляжа + штатные голоса студии "Новамедиа")
Аудио Rus: AC-3 at 192 Kbps 2 channels, 48.0 KHz(Голоса студии ''LostFilm" - внешняя)
Аудио Eng: AC-3 at 640 Kbps 6 channels, 48.0 KHz(Оригинал)
-
Подготовка релиза и видео: ЛП
Сведение дорожек NovaFilm: alex7691
Сведение дорожек LostFilm: qwerty-91
Постер и баннер: Джарлакс2009
- -Все раздачи сериала-

Подключение Внешней Аудиодорожки

Подключение Внешней Аудиодорожки

Добавление (удаление) звуковых дорожек в контейнер MKV

Добавление (удаление) звуковых дорожек в контейнер MKV

MI


General
Complete name : F:\Фтп\Сериалы\Сверхъестественное(Supernatural)\Supernatural Season 5 BDRip 720p\Supernatural.s05e01.BDRip.720p.rus.eng.mkv
Format : Matroska
File size : 1.57 GiB
Duration : 42mn 27s
Overall bit rate : 5 291 Kbps
Encoded date : UTC 2010-11-02 13:27:18
Writing application : mkvmerge v3.3.0 ('Language') built on Mar 24 2010 14:59:24
Writing library : libebml v0.8.0 + libmatroska v0.9.0
Video
ID : 1
Format : AVC
Format/Info : Advanced Video Codec
Format profile : High@L4.1
Format settings, CABAC : Yes
Format settings, ReFrames : 5 frames
Format settings, GOP : M=4, N=32
Muxing mode : Container profile=Unknown@4.1
Codec ID : V_MPEG4/ISO/AVC
Duration : 42mn 27s
Bit rate : 4 265 Kbps
Width : 1 280 pixels
Height : 720 pixels
Display aspect ratio : 16:9
Frame rate : 23.976 fps
Color space : YUV
Chroma subsampling : 4:2:0
Bit depth : 8 bits
Scan type : Progressive
Bits/(Pixel*Frame) : 0.193
Stream size : 1.23 GiB (79%)
Writing library : x264 core 104 r1698 c41b8f0
Encoding settings : cabac=1 / ref=5 / deblock=1:0:0 / analyse=0x3:0x133 / me=umh / subme=7 / psy=1 / psy_rd=1.00:0.00 / mixed_ref=1 / me_range=16 / chroma_me=1 / trellis=1 / 8x8dct=1 / cqm=0 / deadzone=21,11 / fast_pskip=0 / chroma_qp_offset=-2 / threads=12 / sliced_threads=0 / nr=0 / decimate=1 / interlaced=0 / constrained_intra=0 / bframes=3 / b_pyramid=2 / b_adapt=1 / b_bias=0 / direct=1 / weightb=1 / open_gop=0 / weightp=2 / keyint=250 / keyint_min=23 / scenecut=40 / intra_refresh=0 / rc_lookahead=40 / rc=2pass / mbtree=1 / bitrate=4265 / ratetol=1.0 / qcomp=0.60 / qpmin=10 / qpmax=51 / qpstep=4 / cplxblur=20.0 / qblur=0.5 / ip_ratio=1.40 / aq=1:1.00
Language : English
Audio #1
ID : 2
Format : AC-3
Format/Info : Audio Coding 3
Mode extension : CM (complete main)
Codec ID : A_AC3
Duration : 42mn 27s
Bit rate mode : Constant
Bit rate : 192 Kbps
Channel(s) : 2 channels
Channel positions : Front: L R
Sampling rate : 48.0 KHz
Bit depth : 16 bits
Stream size : 58.3 MiB (4%)
Title : NovaFilm
Language : Russian
Audio #2
ID : 3
Format : AC-3
Format/Info : Audio Coding 3
Mode extension : CM (complete main)
Codec ID : A_AC3
Duration : 42mn 27s
Bit rate mode : Constant
Bit rate : 192 Kbps
Channel(s) : 2 channels
Channel positions : Front: L R
Sampling rate : 48.0 KHz
Bit depth : 16 bits
Stream size : 58.3 MiB (4%)
Title : NovaFilm + Dub
Language : Russian
Audio #3
ID : 4
Format : AC-3
Format/Info : Audio Coding 3
Mode extension : CM (complete main)
Codec ID : A_AC3
Duration : 42mn 27s
Bit rate mode : Constant
Bit rate : 640 Kbps
Channel(s) : 6 channels
Channel positions : Front: L C R, Side: L R, LFE
Sampling rate : 48.0 KHz
Bit depth : 16 bits
Stream size : 194 MiB (12%)
Title : Original
Language : English
Список серий
  • Сочувствие дьяволу(Sympathy for the Devil)
  • О, Боже, и вы тоже!(Good God, Y'All)
  • Будь самим собой(Free to Be You and Me)
  • Конец(The End)
  • Не сотвори себе кумира(Fallen Idols)
  • Дети — наше будущее!(I Believe the Children Are Our Future)
  • Загадочная история Дина Винчестера(The Curious Case of Dean Winchester)
  • Переключая каналы(Changing Channels)
  • Настоящие охотники за привидениями(The Real Ghostbusters)
  • Оставь надежду…(Abandon All Hope…)
  • Слепая ярость (Sam, Interrupted)
  • Их поменяли телами (Swap Meat)
  • Старая песня о главном (The Song Remains the Same)
  • Мой кровавый Валентин (My Bloody Valentine)
  • А зомби здесь тихие (Dead Men Don't Wear Plaid)
  • Обратная сторона луны (Dark Side of the Moon)
  • 99 проблем (99 problems)
  • Обратной дороги нет (Point of No Return)
  • Молот Богов (Hammer of the Gods)
  • Мириться лучше со знакомым злом (The Devil You Know)
  • Две минуты до полуночи (Two Minutes to Midnight)
  • Лебединая песня (Swan Song)

    Скриншоты

  • Вы не можете начинать темы
    Вы не можете отвечать на сообщения
    Вы не можете редактировать свои сообщения
    Вы не можете удалять свои сообщения
    Вы не можете голосовать в опросах
    Вы не можете прикреплять файлы к сообщениям
    Вы можете скачивать файлы
    Sitemap