Сверхъестественное / Supernatural / Сезон: 9 / Серии: 1-23 (23) (Роберт Сингер, Филип Сгриккиа) [2013-2014, США, мистика, ужасы, триллер, фэнтези, драма, детектив, BDRip 720p] MVO (NovaFilm) + MVO (LostFilm) + Original + Subs (Rus, Eng) 

Цитировать
Сверхъестественное / Supernatural (9 сезон)7 сезон | 8 сезон | 9 сезон
Год выпуска: 2013-2014
Страна: США
Жанр: мистика, ужасы, триллер, фэнтези, драма, детектив
Продолжительность: ~ 43 минуты
Перевод 1: Профессиональный (многоголосый закадровый) NovaFilm
Перевод 2: Профессиональный (многоголосый закадровый) LostFilm
Режиссёр: Роберт Сингер, Филип Сгриккиа
В ролях: Джаред Падалеки, Дженсен Эклз, Миша Коллинз, Марк Шеппард, Элейна Хаффман, Осрик Чау, Кертис Армстронг, Тамо Пеникетт и другие.
Описание: Тысячи ангелов пали. Сэм и Дин оказываются в мире, населенном могущественными существами, которые уже строят собственные планы. Но, прежде чем, одолеть "ангельскую" угрозу, братьям придется разобраться с противостоянием друг другу. Кастиэль приходит в себя, но обнаруживает, что стал уязвим. Перед парнями встает задача открыть Небеса и вернуть обратно непрошеных гостей, но мрачная тайна висит над Дином - переступит ли он тонкую грань, чтобы защитить семью?
Все раздачи сериала HD
Сэмпл
Качество: BDRip 720p
Контейнер: MKV
Видео: 1280x720, 23.976 fps, crf=14, 7500-9500 Kbps avg, 0.535 bit/pixel
Аудио 1: AC3 5.1, 48 KHz, 640 kbps (NovaFilm)
Аудио 2: AC3 5.1, 48 KHz, 384 kbps (LostFilm)
Аудио 3: DTS 5.1, 48 KHz, 1509 kbps (Original)
Субтитры: русские, английские

Список серий

9.01 "Думаю, мне тут понравится" (англ "I Think I'm Gonna Like It Here")
9.02 "Дьявол не любит ждать" (англ "Devil May Care")
9.03 "Я не ангел" (англ. "I'm No Angel")
9.04 "Девичник" (англ. "Slumber Party")
9.05 "Собачий полдень Дина" (англ. "Dog Dean Afternoon")
9.06 "Небеса не могут ждать" (англ. "Heaven Can't Wait")
9.07 "Плохиши" (англ. "Bad Boys")
9.08 "Молотом и наковальней" (англ. "Rock and a Hard Place")
9.09 "Святой террор" (англ. "Holy Terror")
9.10 "Дорожное приключение" (англ. "Road Trip")
9.11 "Первенец" (англ. "First Born")
9.12 "Острые клыки" (англ. "Sharp Teeth")
9.13 "Очищение" (англ. "The Purge")
9.14 "Пленники" (англ. "Captives")
9.15 "Тощий" (англ. "Thinman")
9.16 "В погоне за клинком" (англ. "Blade Runners")
9.17 "Мамин помощничек" (англ. "Mother's Little Helper")
9.18 "Мета Фикшн" (англ. "Meta Fiction")
9.19 "Алекс Энни Алексис Энн" (англ. "Alex Annie Alexis Ann")
9.20 "Сверхъестественное: Кровные узы" (англ. "Supernatural: Bloodlines")
9.21 "Король проклятых" (англ. "King of the Damned")
9.22 "Лестница на Небеса" (англ. "Stairway to Heaven")
9.23 "Ты веришь в чудеса?" (англ. "Do You Believe In Miracles")

MediaInfo

General
Format: Matroska
Format version: Version 2
File size: 3.56 GiB
Duration: 42mn 14s
Overall bit rate: 12.1 Mbps
Encoded date: UTC 2015-02-14 23:10:28
Writing application: mkvmerge v5.8.0 ('No Sleep / Pillow') built on Sep 2 2012 15:37:04
Writing library: libebml v1.2.3 + libmatroska v1.3.0
Video
ID: 1
Format: AVC
Format/Info: Advanced Video Codec
Format profile: High@L4.1
Format settings, CABAC: Yes
Format settings, ReFrames: 5 frames
Codec ID: V_MPEG4/ISO/AVC
Duration: 42mn 14s
Bit rate: 9 282 Kbps
Width: 1 280 pixels
Height: 720 pixels
Display aspect ratio: 16:9
Frame rate mode: Constant
Frame rate: 23.976 fps
Color space: YUV
Chroma subsampling: 4:2:0
Bit depth: 8 bits
Scan type: Progressive
Bits/(Pixel*Frame): 0.420
Stream size: 2.74 GiB (77%)
Title: 9.01 "Думаю, мне тут понравится" (англ "I Think I'm Gonna Like It Here")
Writing library: x264 core 144 r2525 40bb568
Encoding settings: cabac=1 / ref=5 / deblock=1:-2:-2 / analyse=0x3:0x133 / me=umh / subme=10 / psy=1 / psy_rd=1.00:0.00 / mixed_ref=1 / me_range=24 / chroma_me=1 / trellis=2 / 8x8dct=1 / cqm=0 / deadzone=21,11 / fast_pskip=0 / chroma_qp_offset=-2 / threads=6 / lookahead_threads=1 / sliced_threads=0 / nr=0 / decimate=0 / interlaced=0 / bluray_compat=0 / constrained_intra=0 / bframes=6 / b_pyramid=2 / b_adapt=2 / b_bias=0 / direct=3 / weightb=1 / open_gop=0 / weightp=2 / keyint=240 / keyint_min=23 / scenecut=40 / intra_refresh=0 / rc_lookahead=60 / rc=crf / mbtree=1 / crf=14.0 / qcomp=0.70 / qpmin=0 / qpmax=69 / qpstep=4 / vbv_maxrate=62500 / vbv_bufsize=78125 / crf_max=0.0 / nal_hrd=none / filler=0 / ip_ratio=1.40 / aq=1:0.95
Language: English
Default: Yes
Forced: No
Audio #1
ID: 2
Format: AC-3
Format/Info: Audio Coding 3
Mode extension: CM (complete main)
Format settings, Endianness: Big
Codec ID: A_AC3
Duration: 42mn 14s
Bit rate mode: Constant
Bit rate: 640 Kbps
Channel(s): 6 channels
Channel positions: Front: L C R, Side: L R, LFE
Sampling rate: 48.0 KHz
Bit depth: 16 bits
Compression mode: Lossy
Stream size: 193 MiB (5%)
Title: DD 5.1 @ 640 kbps @ NovaFilm
Language: Russian
Default: Yes
Forced: No
Audio #2
ID: 3
Format: AC-3
Format/Info: Audio Coding 3
Mode extension: CM (complete main)
Format settings, Endianness: Big
Codec ID: A_AC3
Duration: 42mn 14s
Bit rate mode: Constant
Bit rate: 384 Kbps
Channel(s): 6 channels
Channel positions: Front: L C R, Side: L R, LFE
Sampling rate: 48.0 KHz
Bit depth: 16 bits
Compression mode: Lossy
Stream size: 116 MiB (3%)
Title: DD 5.1 @ 384 kbps @ LostFilm
Language: Russian
Default: No
Forced: No
Audio #3
ID: 4
Format: DTS
Format/Info: Digital Theater Systems
Mode: 16
Format settings, Endianness: Big
Codec ID: A_DTS
Duration: 42mn 14s
Bit rate mode: Constant
Bit rate: 1 509 Kbps
Channel(s): 6 channels
Channel positions: Front: L C R, Side: L R, LFE
Sampling rate: 48.0 KHz
Bit depth: 16 bits
Compression mode: Lossy
Stream size: 456 MiB (13%)
Title: DTS 5.1 @ 1 509 Kbps @ Original
Language: English
Default: No
Forced: No
Text #1
ID: 5
Format: UTF-8
Codec ID: S_TEXT/UTF8
Codec ID/Info: UTF-8 Plain Text
Title: Russian @ SRT @ Злюка
Language: Russian
Default: No
Forced: No
Text #2
ID: 6
Format: UTF-8
Codec ID: S_TEXT/UTF8
Codec ID/Info: UTF-8 Plain Text
Title: English @ SRT
Language: English
Default: No
Forced: No

Скриншоты

Вы не можете начинать темы
Вы не можете отвечать на сообщения
Вы не можете редактировать свои сообщения
Вы не можете удалять свои сообщения
Вы не можете голосовать в опросах
Вы не можете прикреплять файлы к сообщениям
Вы можете скачивать файлы
Sitemap