Сверхъестественное: Укротители духов / Supernatural: Ghostfacers (McG) [2010, США, Ужасы, мистика, юмор, BDRip 720p] (LostFilm) 

Цитировать
--Сверхъестественное: Укротители духов / Supernatural: Ghostfacers-- Год выпуска: 2010
Страна: США
Жанр: Ужасы, мистика, юмор
Продолжительность: 00:32:49
Перевод: Профессиональный (многоголосый закадровый) - [LostFilm]
Субтитры: Есть - [Fargate]-Режиссёр: McG-В ролях: Austin Basis, A.J. Buckley, Brittany Ishibashi, Travis Wester, Mircea Monroe, Kelly Carlson-Описание: В серии 5.19. «Молот богов» была реклама веб-сериала «Укротители духов». Он вышел на DVD 5-го сезона «Сверхъестественного» и состоял из десяти трехминутных роликов. Мы объединили их в одно целое, тем более, что это одна история, произошедшая после того, как «Укротители» встретились с Кастиэлем.-Качество: BDRip 720p
Формат: MKV
Видео кодек: H.264
Аудио кодек: AC3
Видео: 1280x720 (16:9), 23.976 fps, 5486 kbps, ~0.248 bit/pixel
Аудио Rus: 48 kHz, 2 ch, ~192 kbps
Аудио Eng: 48 kHz, 2 ch, ~192 kbps-
Перевод: Fargate
Озвучка: Студия "Кравец".

http://multi-up.com/556104

Скриншоты

MediaInfo

Общее
Уникальный идентификатор : 172434059895029174172897837052168461101 (0x81B99789468FB1FCBA7035C79D9F5B2D)
Полное имя : E:\Supernatural.Ghostfacers.rus.720p.LostFilm.TV.mkv
Формат : Matroska
Размер файла : 1,35 Гбайт
Продолжительность : 32 м.
Общий поток : 5872 Кбит/сек
Дата кодирования : UTC 2011-09-11 21:38:08
Программа кодирования : mkvmerge v4.8.0 ('I Got The...') сборка от May 24 2011 03:12:58
Библиотека кодирования : libebml v1.2.0 + libmatroska v1.1.0
Видео
Идентификатор : 1
Формат : AVC
Формат/Информация : Advanced Video Codec
Профиль формата : High@L3.1
Параметр CABAC формата : Да
Параметр ReFrames формата : 4 кадра
Идентификатор кодека : V_MPEG4/ISO/AVC
Продолжительность : 32 м.
Битрейт : 5486 Кбит/сек
Ширина : 1280 пикс.
Высота : 720 пикс.
Соотношение сторон : 16:9
Частота кадров : 23,976 кадр/сек
Цветовое пространство : YUV
Подвыборка цветности : 4:2:0
Битовая глубина : 8 бит
Тип развёртки : Прогрессивная
Бит/(Пиксели*Кадры) : 0.248
Размер потока : 1,23 Гбайт (91%)
Библиотека кодирования : x264 core 112 r1834 a51816a
Настройки программы : cabac=1 / ref=1 / deblock=1:0:0 / analyse=0x3:0x113 / me=hex / subme=7 / psy=1 / psy_rd=1.00:0.00 / mixed_ref=0 / me_range=16 / chroma_me=1 / trellis=1 / 8x8dct=1 / cqm=0 / deadzone=21,11 / fast_pskip=1 / chroma_qp_offset=-2 / threads=24 / sliced_threads=0 / nr=0 / decimate=1 / interlaced=0 / constrained_intra=0 / bframes=3 / b_pyramid=2 / b_adapt=1 / b_bias=0 / direct=1 / weightb=1 / open_gop=0 / weightp=2 / keyint=250 / keyint_min=25 / scenecut=40 / intra_refresh=0 / rc_lookahead=40 / rc=2pass / mbtree=1 / bitrate=5486 / ratetol=1.0 / qcomp=0.60 / qpmin=0 / qpmax=51 / qpstep=4 / cplxblur=20.0 / qblur=0.5 / ip_ratio=1.40 / aq=1:1.00
Аудио #1
Идентификатор : 2
Формат : AC-3
Формат/Информация : Audio Coding 3
Расширение режима : CM (complete main)
Идентификатор кодека : A_AC3
Продолжительность : 32 м.
Вид битрейта : Постоянный
Битрейт : 192 Кбит/сек
Каналы : 2 канала
Расположение каналов : Front: L R
Частота : 48,0 КГц
Битовая глубина : 16 бит
Метод сжатия : С потерями
Размер потока : 45,1 Мбайт (3%)
Заголовок : Rus
Язык : Russian
Аудио #2
Идентификатор : 3
Формат : AC-3
Формат/Информация : Audio Coding 3
Расширение режима : CM (complete main)
Идентификатор кодека : A_AC3
Продолжительность : 32 м.
Вид битрейта : Постоянный
Битрейт : 192 Кбит/сек
Каналы : 2 канала
Расположение каналов : Front: L R
Частота : 48,0 КГц
Битовая глубина : 16 бит
Метод сжатия : С потерями
Размер потока : 45,1 Мбайт (3%)
Заголовок : Eng
Язык : English
Текст
Идентификатор : 4
Формат : UTF-8
Идентификатор кодека : S_TEXT/UTF8
Идентификатор кодека/Информация : UTF-8 Plain Text
Вы не можете начинать темы
Вы не можете отвечать на сообщения
Вы не можете редактировать свои сообщения
Вы не можете удалять свои сообщения
Вы не можете голосовать в опросах
Вы не можете прикреплять файлы к сообщениям
Вы можете скачивать файлы
Sitemap