Сверхъестественное / Supernatural / Сезон: 1 / Серии: 1-22 (22) (Эрик Крипке / Eric Kripke) [2005, США, мистика, триллер, ужасы, BDRemux 1080p] Dub (Ren-TV) 

Цитировать
Сезон 1 | Сезон 2 | Сезон 3 | Сезон 4 | Сезон 5 | Сезон 6-Сверхъестественное / Supernatural (Сезон 1)
«Scary Just Got Sexy»
- Год выпуска: 2005
Страна: США
Жанр: мистика, триллер, ужасы
Продолжительность: ~00:48 х 22
Перевод: Профессиональный (полное дублирование) - Ren-Tv
Субтитры:
  • Русские на тексты песен
  • Русские полные
  • Английские
Автор идеи: Эрик Крипке / Eric Kripke
В ролях: Джаред Падалеки, Дженсен Эклз, Джеффри Дин Морган, Джим Бивер и др
Описание: Сериал рассказывает о приключениях братьев Сэма и Дина Винчестеров, которые путешествуют по Соединённым Штатам на чёрном автомобиле Chevrolet Impala 1967 года, расследуют паранормальные явления, многие из которых основаны на американских городских легендах и фольклоре, и сражаются с порождениями зла, такими как демоны и призраки.
Доп. информация: Огромное спасибо JigSaW_3 за предоставленную возможность скачать Blu-ray с hdbits
За синхронизацию русских субтитров огромное спасибо vlaluk и Mister Yarik (Super Moderator HQ-ViDEO)
За исходные субтитры на тексты песен огромное спасибо Tigerr
За их точную синхронизацию огромное спасибо Mister Yarik (Super Moderator HQ-ViDEO)
За работу со звуком и точную синхронизацию дорог огромное спасибо Mister Yarik (Super Moderator HQ-ViDEO):
Все дороги (кроме 18) взяты со С.Р.И. издания
У uxTuaHgp во 2-ой серии - на 33 минуте на 2 секунды пропадает звук, в дорожке от С.Р.И. издания на это место наложена оригинальная дорожка;
в 18-ой серии - на 37 минуте на 2 секунды пропадает звук, это вина дорожки Ren-Tv (запись с тв)- в нашей дорожке звук не пропадает;
в 19-ой серии - на 39 минуте на 2 секунды пропадает звук, это вина дорожки Ren-Tv (запись с тв)- в нашей дорожке на это место наложен кусочек оригинальной дорожки;
в 20-ой серии - отсутствует Previosly on Supernatural. Так что если в начале услышите английскую речь не волнуйтесь. На этот момент есть форсированные субтитры. Спасибо за них Mister Yarik (Super Moderator HQ-ViDEO);
У uxTuaHgp в 21-ой серии -в конце (00:39:42 - 00:39:53) отсутствует 11 секунд, в дорожке от С.Р.И. издания в конце серии все дублировано.
в 22-ой серии - отсутствует Previosly on Supernatural. Так что если в начале услышите английскую речь не волнуйтесь. На этот момент есть форсированные субтитры. Спасибо за них Mister Yarik (Super Moderator HQ-ViDEO)
а также у uxTuaHgp почти во всем сезоне заметен плавающий рассинхрон (1, 2, 3, 4, 5, 6, 7, 8, 9, 10, 11, 12, 13, 14, 22 серии). У нас все точно синхронизировано.
Все раздачи сериала
Качество: BDRemux
Формат: MKV
Видео кодек: VC-1
Аудио кодек: AC3
Видео: 1920х1080, 16:9, ~17 Мбит/сек, 23,976 кадр/сек
Аудио: Russian, AC3 2.0, 48 KHz, 192 kbps
Аудио 2: English, AC3 5.1, 48 KHz, 640 kbps

-

MI

Общее
Уникальный идентификатор                 : 251244048385691913151601501156851079894 (0xBD03D7F70E0B29218D49CFEAB1B45AD6)
Полное имя                               : D:\Torrent\Supernatural S01 BD-Remux\SupernaturalS01E02.mkv
Формат                                   : Matroska
Версия формата                           : Version 2
Размер файла                             : 5,38 Гбайт
Продолжительность                        : 43 м.
Общий поток                              : 17,8 Мбит/сек
Дата кодирования                         : UTC 2012-05-14 08:49:46
Программа кодирования                    : mkvmerge v4.3.0 ('Escape from the Island') сборка от Sep  5 2010 10:30:51
Библиотека кодирования                   : libebml v1.0.0 + libmatroska v1.0.0
Видео
Идентификатор                            : 1
Формат                                   : VC-1
Профиль формата                          : AP@L3
Идентификатор кодека                     : WVC1
Идентификатор кодека/Подсказка           : Microsoft
Продолжительность                        : 43 м.
Битрейт                                  : 16,6 Мбит/сек
Ширина                                   : 1920 пикселей
Высота                                   : 1080 пикселей
Соотношение сторон                       : 16:9
Частота кадров                           : 23,976 кадра/сек
Субдискретизация насыщенности            : 4:2:0
Битовая глубина                          : 8 бит
Тип развёртки                            : Прогрессивная
Метод сжатия                             : С потерями
Бит/(Пиксели*Кадры)                      : 0.334
Размер потока                            : 5,02 Гбайт (93%)
Default                                  : Да
Forced                                   : Нет
Аудио #1
Идентификатор                            : 2
Формат                                   : AC-3
Формат/Информация                        : Audio Coding 3
Расширение режима                        : CM (complete main)
Параметр Endianness формата              : Big
Режим смешивания                         : Header stripping
Идентификатор кодека                     : A_AC3
Продолжительность                        : 43 м.
Вид битрейта                             : Постоянный
Битрейт                                  : 192 Кбит/сек
Каналы                                   : 2 канала
Расположение каналов                     : Front: L R
Частота                                  : 48,0 КГц
Битовая глубина                          : 16 бит
Метод сжатия                             : С потерями
Размер потока                            : 59,4 Мбайт (1%)
Заголовок                                : AC3 2.0 @ 192 kbps [Ren-Tv]
Язык                                     : Russian
Default                                  : Да
Forced                                   : Нет
Аудио #2
Идентификатор                            : 3
Формат                                   : AC-3
Формат/Информация                        : Audio Coding 3
Расширение режима                        : CM (complete main)
Параметр Endianness формата              : Big
Режим смешивания                         : Header stripping
Идентификатор кодека                     : A_AC3
Продолжительность                        : 43 м.
Вид битрейта                             : Постоянный
Битрейт                                  : 640 Кбит/сек
Каналы                                   : 6 каналов
Расположение каналов                     : Front: L C R, Side: L R, LFE
Частота                                  : 48,0 КГц
Битовая глубина                          : 16 бит
Метод сжатия                             : С потерями
Размер потока                            : 198 Мбайт (4%)
Заголовок                                : AC3 5.1 @ 640 kbps [Original]
Язык                                     : English
Default                                  : Нет
Forced                                   : Нет
Текст #1
Идентификатор                            : 4
Формат                                   : UTF-8
Идентификатор кодека                     : S_TEXT/UTF8
Идентификатор кодека/Информация          : UTF-8 Plain Text
Заголовок                                : Русские (на тексты песен)
Язык                                     : Russian
Default                                  : Нет
Forced                                   : Нет
Текст #2
Идентификатор                            : 5
Формат                                   : UTF-8
Идентификатор кодека                     : S_TEXT/UTF8
Идентификатор кодека/Информация          : UTF-8 Plain Text
Заголовок                                : Русские (полные)
Язык                                     : Russian
Default                                  : Нет
Forced                                   : Нет
Текст #3
Идентификатор                            : 6
Формат                                   : UTF-8
Идентификатор кодека                     : S_TEXT/UTF8
Идентификатор кодека/Информация          : UTF-8 Plain Text
Заголовок                                : Английские
Язык                                     : English
Default                                  : Нет
Forced                                   : Нет

Скриншоты

Список серий

1 серия - Пилот / Pilot
2 серия - Вендиго / Wendigo
3 серия - Мертвец в Воде / Dead In The Water
4 серия - Призрачный Странник / Phantom Traveler
5 серия - Кровавая Мэри / Bloody Mary
6 серия - Кожа / Skin
7 серия - Человек с Крюком / Hookman
8 серия - Жуки / Bugs
9 серия - Дом / Home
10 серия - Психушка / Asylum
11 серия - Пугало / Scarecrow
12 серия - Вера / Faith
13 серия - Шоссе 6.6.6 / Route 6.6.6
14 серия - Кошмар / Nightmare
15 серия - Бендеры / The Benders
16 серия - Тень / Shadow
17 серия - Адский Дом / Hell House
18 серия - Нечто Злое / Something Wicked
19 серия - Происхождение / Provenance
20 серия - Кровь Мертвеца / Dead Man's Blood
21 серия - Спасение / Salvation
22 серия - Дьявольская Ловушка / Devil's Trap
Вы не можете начинать темы
Вы не можете отвечать на сообщения
Вы не можете редактировать свои сообщения
Вы не можете удалять свои сообщения
Вы не можете голосовать в опросах
Вы не можете прикреплять файлы к сообщениям
Вы можете скачивать файлы
Sitemap