Сверхъестественное / Supernatural / Сезон: 8 / Серии: 1-23 (23) (Роберт Сингер, Филип Сгриккиа) [2012-2013, США, мистика, ужасы, триллер, фэнтези, драма, детектив, BDRip 720p] MVO (NovaFilm) + MVO (LostFilm) + Original + Subs (Rus, Eng) 

Цитировать
Сверхъестественное / Supernatural (8 сезон)7 сезон | 8 сезон | 9 сезон
Год выпуска: 2012-2013
Страна: США
Жанр: мистика, ужасы, триллер, фэнтези, драма, детектив
Продолжительность: ~ 43 минуты
Перевод 1: Профессиональный (многоголосый закадровый) NovaFilm
Перевод 2: Профессиональный (многоголосый закадровый) LostFilm
Режиссёр: Роберт Сингер, Филип Сгриккиа и др.
В ролях: Джаред Падалеки, Дженсен Эклз, Миша Коллинз, Джим Бивер, Марк Шеппард, Осрик Чау, Лиэн Балабан, Кертис Армстронг, Тайлер Джонстон и др.
Описание: Дин и Сэм снова в деле, но отношения их не просты. Дин целый год бился за выживание в Чистилище, а Сэм в это время жил нормальной жизнью с девушкой, не пытаясь искать брата и Кевина Трэна. Дин не может простить брата, но и сам хранит в секрете то, как выбрался из Чистилища. Также, помимо простой охоты, перед братьями встает глобальная цель - навсегда закрыть Врата Ада.-Все раздачи сериала HD
Сэмпл-Качество: BDRip 720p
Контейнер: MKV
Видео: 1280x720, 23.976 fps, crf=16, 4500 - 9500 Kbps avg, 0.344 bit/pixel
Аудио 1: AC3 5.1, 48 KHz, 640 kbps (NovaFilm)
Аудио 2: AC3 5.1, 48 KHz, 384 kbps (LostFilm)
Аудио 3: DTS 5.1, 48 KHz, 1509 kbps (Original)
Субтитры: русские, английские-

Список серий

8.01 Есть разговор о Кевине (англ "We Need to Talk About Kevin")
8.02 Слово за Мамой (англ. "What's Up, Tiger Mommy")
8.03 Дела Сердечные (англ. "Heartache")
8.04 Укушенные (англ. "Bitten")
8.05 Брат по Крови (англ. "Blood Brother")
8.06 Южное Дружелюбие (англ. "Southern Comfort")
8.07 Ломтик Кевина (англ. "A Little Slice of Kevin")
8.08 Герои Бесстрашные (англ. "Hunteri Heroic")
8.09 Гражданин Клык (англ. "Citizen Fang")
8.10 Побитый жизнью (англ. "Torn and Frayed")
8.11 Ролевые игры и настоящая девушка (англ. "LARP and the Real Girl")
8.12 Время летит (англ. "As Time Goes By")
8.13 Все Ненавидят Гитлера (англ. "Everybody Hates Hitler")
8.14 Метод Проб и Ошибок (англ. "Trial and Error")
8.15 Больше, чем лучший друг человека (англ. "Man's Best Friend with Benefits")
8.16 Вспоминая Титанов (англ. "Remember the Titans")
8.17 Прощай, незнакомец (англ. "Goodbye Stranger")
8.18 Чудища и Чудики (англ. "Freaks and Geeks")
8.19 Таксист (англ. "Taxi Driver")
8.20 Игромания (англ. "Pac-Man Fever")
8.21 Побег от Реальности (англ. "The Great Escapist")
8.22 Отголоски Прошлого (англ. "Clip Show")
8.23 Жертва (англ. "Sacrifice")

MediaInfo

Format: Matroska
Format version: Version 2
File size: 3.28 GiB
Duration: 42mn 31s
Overall bit rate mode: Variable
Overall bit rate: 11.0 Mbps
Encoded date: UTC 2015-01-10 12:08:10
Writing application: mkvmerge v5.8.0 ('No Sleep / Pillow') built on Sep 2 2012 15:37:04
Writing library: libebml v1.2.3 + libmatroska v1.3.0
Video
ID: 1
Format: AVC
Format/Info: Advanced Video Codec
Format profile: High@L4.1
Format settings, CABAC: Yes
Format settings, ReFrames: 5 frames
Codec ID: V_MPEG4/ISO/AVC
Duration: 42mn 30s
Bit rate: 7 612 Kbps
Width: 1 280 pixels
Height: 720 pixels
Display aspect ratio: 16:9
Frame rate mode: Constant
Frame rate: 23.976 fps
Color space: YUV
Chroma subsampling: 4:2:0
Bit depth: 8 bits
Scan type: Progressive
Bits/(Pixel*Frame): 0.344
Stream size: 2.26 GiB (98%)
Writing library: x264 core 144 r2525 40bb568
Encoding settings: cabac=1 / ref=5 / deblock=1:-2:-2 / analyse=0x3:0x133 / me=umh / subme=10 / psy=1 / psy_rd=1.00:0.00 / mixed_ref=1 / me_range=24 / chroma_me=1 / trellis=2 / 8x8dct=1 / cqm=0 / deadzone=21,11 / fast_pskip=0 / chroma_qp_offset=-2 / threads=6 / lookahead_threads=1 / sliced_threads=0 / nr=0 / decimate=0 / interlaced=0 / bluray_compat=0 / constrained_intra=0 / bframes=6 / b_pyramid=2 / b_adapt=2 / b_bias=0 / direct=3 / weightb=1 / open_gop=0 / weightp=2 / keyint=240 / keyint_min=23 / scenecut=40 / intra_refresh=0 / rc_lookahead=60 / rc=crf / mbtree=1 / crf=16.0 / qcomp=0.70 / qpmin=0 / qpmax=69 / qpstep=4 / vbv_maxrate=62500 / vbv_bufsize=78125 / crf_max=0.0 / nal_hrd=none / filler=0 / ip_ratio=1.40 / aq=1:0.95
Default: Yes
Forced: No
Audio #1
ID: 2
Format: AC-3
Format/Info: Audio Coding 3
Mode extension: CM (complete main)
Format settings, Endianness: Big
Codec ID: A_AC3
Duration: 42mn 31s
Bit rate mode: Constant
Bit rate: 640 Kbps
Channel(s): 6 channels
Channel positions: Front: L C R, Side: L R, LFE
Sampling rate: 48.0 KHz
Bit depth: 16 bits
Compression mode: Lossy
Stream size: 195 MiB (6%)
Title: DD 5.1 @ 640 kbps @ NovaFilm
Language: Russian
Default: Yes
Forced: No
Audio #2
ID: 3
Format: AC-3
Format/Info: Audio Coding 3
Mode extension: CM (complete main)
Format settings, Endianness: Big
Codec ID: A_AC3
Duration: 42mn 31s
Bit rate mode: Constant
Bit rate: 384 Kbps
Channel(s): 6 channels
Channel positions: Front: L C R, Side: L R, LFE
Sampling rate: 48.0 KHz
Bit depth: 16 bits
Compression mode: Lossy
Stream size: 117 MiB (3%)
Title: DD 5.1 @ 384 kbps @ LostFilm
Language: Russian
Default: No
Forced: No
Audio #3
ID: 4
Format: DTS
Format/Info : Digital Theater Systems
Format profile: MA / Core
Mode: 16
Format settings, Endianness: Big
Codec ID: A_DTS
Duration: 42mn 31s
Bit rate mode: Variable
Bit rate: Unknown / 1 509 Kbps
Channel(s): 6 channels
Channel positions: Front: L C R, Side: L R, LFE
Sampling rate: 48.0 KHz
Bit depth: 16 bits
Compression mode: Lossless / Lossy
Title: DTS 5.1 @ 1 509 Kbps @ Original
Language: English
Default: No
Forced: No
Text #1
ID: 5
Format: UTF-8
Codec ID: S_TEXT/UTF8
Codec ID/Info: UTF-8 Plain Text
Title: Russian @ SRT @ Злюка
Language: Russian
Default: No
Forced: No
Text #2
ID: 6
Format: UTF-8
Codec ID: S_TEXT/UTF8
Codec ID/Info: UTF-8 Plain Text
Title: English @ SRT
Language: English
Default: No
Forced: No

Скриншоты

Вы не можете начинать темы
Вы не можете отвечать на сообщения
Вы не можете редактировать свои сообщения
Вы не можете удалять свои сообщения
Вы не можете голосовать в опросах
Вы не можете прикреплять файлы к сообщениям
Вы можете скачивать файлы
Sitemap