(Acoustic Rock) [CD] Павел Кашин - Ampersand - 2018, FLAC (image+.cue), lossless 

Цитировать
Павел Кашин / Ampersand
Жанр: Acoustic Rock
Носитель: CD
Страна-производитель диска (релиза): Россия
Год издания: 2018
Издатель (лейбл): Not On Label
Страна исполнителя (группы): Россия
Аудиокодек: FLAC (*.flac)
Тип рипа: image+.cue
Битрейт аудио: lossless
Продолжительность: 00:35:01
Источник (релизер): Свой рип
Наличие сканов в содержимом раздачи: да
Треклист:
01. Рассвет после болезни
02. Скипетры и троны
03. Соткан из света
04. Сон солдата (А. Рембо)
05. Танцует Бог
06. Библиотека (М. Роллина)
07. Бледные поэты (В. Гюго)
08. Ваше Величество
09. Москва - 17
10. Спасибо, не надо
11. Life Is Beautiful ( английская версия )

Лог создания рипа

Exact Audio Copy V1.3 from 2. September 2016
Отчёт EAC об извлечении, выполненном 13. октября 2018, 16:34
Павел Кашин / Ampersand
Дисковод: ASUS DRW-24F1MT Adapter: 1 ID: 0
Режим чтения : ДостоверностьИспользование точного потока : ДаОтключение кэша аудио : ДаИспользование указателей C2 : Нет
Коррекция смещения при чтении : 6Способность читать области Lead-in и Lead-out : НетЗаполнение пропущенных сэмплов тишиной : ДаУдаление блоков с тишиной в начале и конце : НетПри вычислениях CRC использовались нулевые сэмплы : ДаИнтерфейс : Встроенный Win32-интерфейс для Win NT/2000
Выходной формат : Пользовательский кодировщикВыбранный битрейт : 128 kBit/sКачество : ВысокийДобавление ID3-тега : НетУтилита сжатия : C:\Program Files (x86)\Exact Audio Copy\Flac\flac.exeДополнительные параметры : -V -8 -T "Date=%year%" -T "Genre=%genre%" %source%
TOC извлечённого CD
Трек | Старт | Длительность | Начальный сектор | Конечный сектор --------------------------------------------------------------------- 1 | 0:00.00 | 2:24.71 | 0 | 10870 2 | 2:24.71 | 4:18.27 | 10871 | 30247 3 | 6:43.23 | 3:06.72 | 30248 | 44269 4 | 9:50.20 | 2:09.58 | 44270 | 54002 5 | 12:00.03 | 3:17.52 | 54003 | 68829 6 | 15:17.55 | 4:05.00 | 68830 | 87204 7 | 19:22.55 | 3:02.00 | 87205 | 100854 8 | 22:24.55 | 2:47.53 | 100855 | 113432 9 | 25:12.33 | 3:42.22 | 113433 | 130104 10 | 28:54.55 | 2:28.55 | 130105 | 141259 11 | 31:23.35 | 3:37.60 | 141260 | 157594
Характеристики диапазона извлечения и сообщения об ошибках
Выбранный диапазон
Имя файла E:\Раздачи\Папки\Павел Кашин - Ampersand\Павел Кашин - Ampersand.wav
Пиковый уровень 100.0 % Скорость извлечения 2.5 X Качество диапазона 99.9 % CRC теста 8E42EC65 CRC копии 8E42EC65 Копирование... OK
Ошибок не произошло
AccurateRip: сводка
Трек 1 отсутствует в базе данныхТрек 2 отсутствует в базе данныхТрек 3 отсутствует в базе данныхТрек 4 отсутствует в базе данныхТрек 5 отсутствует в базе данныхТрек 6 отсутствует в базе данныхТрек 7 отсутствует в базе данныхТрек 8 отсутствует в базе данныхТрек 9 отсутствует в базе данныхТрек 10 отсутствует в базе данныхТрек 11 отсутствует в базе данных
Ни одного трека нет в базе AccurateRip
Конец отчёта
==== Контрольная сумма отчёта 3FB64FEDDBC324FE1F7D476BA35893C9EE3C75EF5B03B0561345B5E1EA4D60CF ====

Содержание индексной карты (.CUE)

REM GENRE "Acoustic Rock"REM DATE 2018REM DISCID 9008350BREM COMMENT "ExactAudioCopy v1.3"PERFORMER "Павел Кашин"TITLE "Ampersand"REM COMPOSER ""FILE "Павел Кашин - Ampersand.flac" WAVE  TRACK 01 AUDIO    TITLE "Рассвет после болезни"    PERFORMER "Павел Кашин"    REM COMPOSER ""    INDEX 01 00:00:00  TRACK 02 AUDIO    TITLE "Скипетры и троны"    PERFORMER "Павел Кашин"    REM COMPOSER ""    INDEX 01 02:24:71  TRACK 03 AUDIO    TITLE "Соткана из света"    PERFORMER "Павел Кашин"    REM COMPOSER ""    INDEX 01 06:43:23  TRACK 04 AUDIO    TITLE "Сон солдата"    PERFORMER "Павел Кашин"    REM COMPOSER ""    INDEX 01 09:50:20  TRACK 05 AUDIO    TITLE "Танцует Бог"    PERFORMER "Павел Кашин"    REM COMPOSER ""    INDEX 01 12:00:03  TRACK 06 AUDIO    TITLE "Библиотека"    PERFORMER "Павел Кашин"    REM COMPOSER ""    INDEX 01 15:17:55  TRACK 07 AUDIO    TITLE "Бледные поэты"    PERFORMER "Павел Кашин"    REM COMPOSER ""    INDEX 01 19:22:55  TRACK 08 AUDIO    TITLE "Ваше Величество"    PERFORMER "Павел Кашин"    REM COMPOSER ""    INDEX 01 22:24:55  TRACK 09 AUDIO    TITLE "Москва - 17"    PERFORMER "Павел Кашин"    REM COMPOSER ""    INDEX 01 25:12:33  TRACK 10 AUDIO    TITLE "Спасибо, не надо"    PERFORMER "Павел Кашин"    REM COMPOSER ""    INDEX 01 28:54:55  TRACK 11 AUDIO    TITLE "Life Is Beautiful ( английская версия )"    PERFORMER "Павел Кашин"    REM COMPOSER ""    INDEX 01 31:23:35

Лог проверки качества

-----------------------
DON'T MODIFY THIS FILE
-----------------------
PERFORMER: auCDtect Task Manager, ver. 1.6.0 RC1 build 1.6.0.1Copyright (c) 2008-2010 y-soft. All rights reservedhttp://y-soft.org
ANALYZER: auCDtect: CD records authenticity detector, version 0.8.2Copyright (c) 2004 Oleg Berngardt. All rights reserved.Copyright (c) 2004 Alexander Djourik. All rights reserved.
FILE: Павел Кашин - Ampersand.flac Size: 245831740 Hash: 4CB03AC4B34779039EE5050C47E4FEE7 Accuracy: -m0 Conclusion: CDDA 100% Signature: 8F7E50C77923B3DED7C5D06D153A63008624554A
Вы не можете начинать темы
Вы не можете отвечать на сообщения
Вы не можете редактировать свои сообщения
Вы не можете удалять свои сообщения
Вы не можете голосовать в опросах
Вы не можете прикреплять файлы к сообщениям
Вы можете скачивать файлы
!ВНИМАНИЕ!

Сайт не предоставляет электронные версии произведений, а занимается лишь коллекционированием и каталогизацией ссылок, присылаемых и публикуемых на форуме нашими читателями. Если вы являетесь правообладателем какого-либо представленного материала и не желаете, чтобы ссылка на него находилась в нашем каталоге, свяжитесь с нами, и мы незамедлительно удалим ее. Файлы для обмена на трекере предоставлены пользователями сайта, и администрация не несет ответственности за их содержание. Просьба не заливать файлы, защищенные авторскими правами, а также файлы нелегального содержания!

Искали программы, игры, дополнения, музыка mp3, аниме, аудио книги, журналы? Добро пожаловать на свободный торрент трекер Torrents, у нас можно скачать бесплатно, без смс и регистрации и прочих ограничений лучшие, отборные сборки программ, игр. Скачать торрентом не составит труда даже не опытному пользователю. Раздачи ежедневно обновляются, только лучшие и качественные раздачи, подробные описания и скриншоты. Огромная коллекция программ для работы со звуком, графикой, дизайном, а так же множество плагинов и инструментов к ним с подробной инструкцией и рекомендациями. Прошивки для навигаторов, карты. Разнообразные игры, для Windows, Linux. В коллекцие есть и старые игры любых жанров, Rpg, Action, Shooter, strategy Множество дополнений, модификаций, сценариев для популярных игр в жанре экш, рпг, гонки, стратегии, логические игры. Множество аддонов и сценариев для Microsoft Flight Simulator Большая коллекция книг, учебников. Если нет возможности купить печатное издание - смело скачивайте цифровую версию книги или, быть может, журнала. Не любите читать - можно загрузить бесплатно аудикнигу. Для веб дизайнеров и программистов так же найдется множество специализированного софта, таких как: редакторы с подсветкой, среды программирования, компоненты, системы управления базами данных, разнообразные скрипты и шаблоны. Не так давно у нас появился материал для автолюбителей и владельцев мото - оригинальные и неоригинальные каталоги запчастей, книги и журналы по ремонту и обслуживанию, видеоуроки, статьи по чип тюнингу, прошивкам. Процедура получения контента элементарная, достаточно просто скачать торрент файл и добавить его в загрузку в вашем торрент клиенте. Если у вас нет специального торрент клиента, вы можете его скачать у нас.

Sitemap