Сверхъестественное / Supernatural / Сезон: 10 / Серии: 1-23 (23) (Роберт Сингер, Филип Сгриккиа) [2014-2015, мистика, ужасы, триллер, фэнтези, драма, детектив, BDRip 720p] MVO (NovaFilm & NewStudio) + MVO (LostFilm) + Original + Subs (Rus, Eng) 

Цитировать
-Сверхъестественное / Supernatural10 сезон- Год выпуска: 2014-2015
Страна: США
Жанр: мистика, ужасы, триллер, фэнтези, драма, детектив
Продолжительность одной серии: ~ 43 минуты-Перевод 1: Профессиональный (многоголосый закадровый) NovaFilm & NewStudio
Перевод 2: Профессиональный (многоголосый закадровый) LostFilm-Режиссёры: Роберт Сингер, Филип Сгриккиа и другие.
В ролях: Джаред Падалеки, Дженсен Эклз, Миша Коллинз, Марк Шеппард, Рут Коннелл, Кертис Армстронг, Корин Немек, Кэтрин Ньютон и другие.-Описание: В десятом сезоне братья Винчестеры столкнулись с последствиями ношения метки Каина, которую Дин принял, чтобы победить Рыцаря Ада. Дин, убивший Абаддон, погиб и переродился как демон, а значит, Сэму придется как следует попотеть, чтобы вернуть брата в исходное состояние. Впрочем, не только Винчестерам предстоит размышлять о вопросах бытия: Кастиил, победивший Метатрона и сумевший сохранить в целости и невредимости не только собратьев-ангелов, но и свои принципы, находится перед лицом смертельной опасности. Благодать, которую он отобрал у другого ангела взамен своей, утерянной, выгорает, и когда она окончательно исчезнет, Кастиил погибнет, если, конечно, не найдет способ обмануть судьбу…-Все раздачи сериала HD | Сэмпл-Качество: BDRip 720p
Контейнер: MKV
Видео: 1280x720, 23.976 fps, crf=16, ~ 9000 kbps avg
Аудио 1: AC3 5.1, 48 KHz, 640 kbps
Аудио 2: AC3 5.1, 48 KHz, 384 kbps
Аудио 3: DTS 5.1, 48 KHz, 1509 kbps
Субтитры: Русские (Злюка), английские
-

Список серий

10.01 "Мрак" (англ "Black")
10.02 "Рейхенбах" (англ "Reichenbach")
10.03 "Спаситель души" (англ. "Soul Survivor")
10.04 "Бумажная луна" (англ. "Paper Moon")
10.05 "Фанфик" (англ. "Fan Fiction")
10.06 "Спроси Дживса" (англ. "Ask Jeeves")
10.07 "Девчонки, девчонки, девчонки" (англ. "Girs, Girls, Girls")
10.08 "Хиббинг 911" (англ. "Hibbing 911")
10.09 "Оставленное позади" (англ. "The Things We Left Behind")
10.10 "Охотничьи игры" (англ. "The Hunter Games")
10.11 "В гостях хорошо, а дома лучше" (англ. "There's No Place Like Home")
10.12 "О мальчике" (англ. "About a Boy")
10.13 "Остановись и гори" (англ. "Halt & Catch Fire")
10.14 "Песнь палача" (англ. "The Executioner's Song")
10.15 "Тяжкая ноша" (англ. "The Things They Carried")
10.16 "Покрась черным" (англ. "Paint it Black")
10.17 "Не пойман - не вор" (англ. "Inside Man")
10.18 "Книга проклятых" (англ. "Book of the Damned")
10.19 "Проект Вертер" (англ. "The Werther Project")
10.20 "Сердце ангела" (англ. "Angel Heart")
10.21 "Темная династия" (англ. "Dark Dynasty")
10.22 "Пленник" (англ. "The Prisoner")
10.23 "Сторож брату своему" (англ. "Brother's Keeper")

MediaInfo

General
Unique ID: 184694001496594337729350442701254772550 (0x8AF2C5535A16B6E3830F10C0C0CF4746)
Complete name: C:\Users\...\Downloads\Supernatural.S10.720p.BDRip.2xRus.Eng\supernatural.S10E01.720p.BDRip.2xRus.Eng.mkv
Format: Matroska
Format version: Version 2
File size: 3.50 GiB
Duration: 42mn 11s
Overall bit rate mode: Variable
Overall bit rate: 11.9 Mbps
Encoded date: UTC 2015-12-08 12:09:46
Writing application: mkvmerge v5.8.0 ('No Sleep / Pillow') built on Sep 2 2012 15:37:04
Writing library: libebml v1.2.3 + libmatroska v1.3.0
DURATION: 00:42:10.028000000
NUMBER_OF_FRAMES: 60660
NUMBER_OF_BYTES: 2744700470
_STATISTICS_WRITING_APP: mkvmerge v8.5.2 ('Crosses') 32bit
_STATISTICS_WRITING_DATE_UT: 2015-12-08 01:34:48
_STATISTICS_TAGS: BPS DURATION NUMBER_OF_FRAMES NUMBER_OF_BYTES
Video
ID: 1
Format: AVC
Format/Info: Advanced Video Codec
Format profile: High@L3.1
Format settings, CABAC: Yes
Format settings, ReFrames: 5 frames
Codec ID: V_MPEG4/ISO/AVC
Duration: 42mn 11s
Width: 1 280 pixels
Height: 720 pixels
Display aspect ratio: 16:9
Frame rate mode: Constant
Frame rate: 23.976 fps
Color space: YUV
Chroma subsampling: 4:2:0
Bit depth: 8 bits
Scan type: Progressive
Title: 10.01 "Мрак" (англ. "Black")
Writing library: x264 core 148 r2638 7599210
Encoding settings: cabac=1 / ref=5 / deblock=1:0:0 / analyse=0x3:0x113 / me=umh / subme=10 / psy=1 / psy_rd=1.00:0.00 / mixed_ref=1 / me_range=32 / chroma_me=1 / trellis=2 / 8x8dct=1 / cqm=0 / deadzone=21,11 / fast_pskip=1 / chroma_qp_offset=-2 / threads=6 / lookahead_threads=1 / sliced_threads=0 / nr=0 / decimate=0 / interlaced=0 / bluray_compat=0 / constrained_intra=0 / bframes=6 / b_pyramid=2 / b_adapt=1 / b_bias=0 / direct=1 / weightb=1 / open_gop=0 / weightp=2 / keyint=240 / keyint_min=23 / scenecut=40 / intra_refresh=0 / rc_lookahead=40 / rc=crf / mbtree=0 / crf=16.0 / qcomp=0.60 / qpmin=0 / qpmax=69 / qpstep=4 / vbv_maxrate=17500 / vbv_bufsize=17500 / crf_max=0.0 / nal_hrd=none / filler=0 / ip_ratio=1.40 / pb_ratio=1.30 / aq=1:1.00
Language: English
Default: Yes
Forced: No
Audio #1
ID: 2
Format: AC-3
Format/Info: Audio Coding 3
Mode extension: CM (complete main)
Format settings, Endianness: Big
Codec ID: A_AC3
Duration: 42mn 11s
Bit rate mode: Constant
Bit rate: 640 Kbps
Channel(s): 6 channels
Channel positions: Front: L C R, Side: L R, LFE
Sampling rate: 48.0 KHz
Compression mode: Lossy
Stream size: 193 MiB (5%)
Title: DD 5.1 @ 640 kbps @ NovaFilm & NewStudio
Language: Russian
Default: Yes
Forced: No
Audio #2
ID: 3
Format: AC-3
Format/Info: Audio Coding 3
Mode extension: CM (complete main)
Format settings, Endianness : Big
Codec ID: A_AC3
Duration: 42mn 11s
Bit rate mode: Constant
Bit rate: 384 Kbps
Channel(s): 6 channels
Channel positions: Front: L C R, Side: L R, LFE
Sampling rate: 48.0 KHz
Compression mode: Lossy
Stream size: 116 MiB (3%)
Title: DD 5.1 @ 384 kbps @ LostFilm
Language: Russian
Default: No
Forced: No
Audio #3
ID: 4
Format: DTS
Format/Info: Digital Theater Systems
Format profile: MA / Core
Mode: 16
Format settings, Endianness : Big
Codec ID: A_DTS
Duration: 42mn 11s
Bit rate mode: Variable
Bit rate: Unknown / 1 509 Kbps
Channel(s): 6 channels
Channel positions: Front: L C R, Side: L R, LFE
Sampling rate: 48.0 KHz
Bit depth: 16 bits
Compression mode: Lossless / Lossy
Title: DTS 5.1 @ 1 509 Kbps @ Original
Language: English
Default: No
Forced: No
Text #1
ID: 5
Format: UTF-8
Codec ID: S_TEXT/UTF8
Codec ID/Info: UTF-8 Plain Text
Title: Russian @ SRT @ Злюка
Language: Russian
Default: No
Forced: No
Text #2
ID: 6
Format: UTF-8
Codec ID: S_TEXT/UTF8
Codec ID/Info: UTF-8 Plain Text
Title: English @ SRT
Language: English
Default: No
Forced: No

Скриншоты

Вы не можете начинать темы
Вы не можете отвечать на сообщения
Вы не можете редактировать свои сообщения
Вы не можете удалять свои сообщения
Вы не можете голосовать в опросах
Вы не можете прикреплять файлы к сообщениям
Вы можете скачивать файлы
Sitemap