Сверхъестественное / Supernatural / Сезон: 5 / Серии: 1-22 (22) (Эрик Крипке / Eric Kripke) [2009, США, мистика, триллер, ужасы] [BDRip 720p] [Ren-Tv, NovaFilm; rus/eng subs] 

Цитировать
Сверхъестественное / SupernaturalСезон 1 - BDRip 720p | Сезон 2 - BDRip 720p | Сезон 3 - BDRip 720p | Сезон 4 - BDRip 720p | Сезон 5 - BDRip 720p | Сезон 6 - BDRip 720p-Сверхъестественное / Supernatural [Season 5]«Scary Just Got Sexy»- Год выпуска: 2009
Страна: США | Warner Bros. Television
Жанр: мистика, триллер, ужасы
Продолжительность: ~00:48 x22 | 22 x2,20 Гб
Перевод:
  • Профессиональный (полное дублирование) - Ren-Tv
  • Профессиональный (многоголосый, закадровый)x2 - NovaFilm
Оригинальная дорожка: Английская
Субтитры: русские, английские-Автор идеи: Эрик Крипке
В ролях: Джаред Падалеки, Дженсен Эклз, Джеффри Дин Морган, Джим Бивер и др-Описание: Сериал рассказывает о приключениях братьев Сэма и Дина Винчестеров, которые путешествуют по Соединённым Штатам на чёрном автомобиле Chevrolet Impala 1967 года, расследуют паранормальные явления, многие из которых основаны на американских городских легендах и фольклоре, и сражаются с порождениями зла, такими как демоны и призраки.-Релиз подготовил: uxTuaHgp
За дубляж спасибо Труляляна
Рип MMI
Все раздачи сериала-Качество: BDRip [720p]
Формат: MKV
Видео кодек: H.264
Аудио кодек: AC3
Видео: 1280x720, 23.976 fps, ~6Mbps, 0.299 bit/pixel
Аудио #1: AC3 2.0, 48 KHz, 192 kbps |Ren-Tv|
Аудио #2: AC3 2.0, 48 KHz, 192 kbps |Голоса официального дубляжа + штатные голоса студии|
Аудио #3: AC3 2.0, 48 KHz, 192 kbps |Голоса студии "Новамедиа"|
Аудио #4: AC3 5.1, 48 KHz, 640 kbps |Оригинальная дорожка|-Список серий
  • Sympathy for the Devil
  • Good God, Y'All
  • Free to Be You and Me
  • The End
  • Fallen Idol
  • I Believe the Children Are Our Future
  • The Curious Case of Dean Winchester
  • Changing Channels
  • The Real Ghostbusters
  • Abandon All Hope...
  • Sam, Interrupted
  • Swap Meat
  • The Song Remains the Same
  • My Bloody Valentine
  • Dead Men Don't Wear Plaid
  • Dark Side of the Moon
  • 99 Problems
  • Point of No Return
  • Hammer of the Gods
  • The Devil You Know
  • Two Minutes to Midnight
  • Swan Song

    MI

    Format                           : Matroska
    File size                        : 2.32 GiB
    Duration                         : 42mn 27s
    Overall bit rate                 : 7 820 Kbps
    Movie name                       : Release by uxTuaHgp
    Encoded date                     : UTC 2011-04-20 12:59:09
    Writing application              : mkvmerge v2.5.3 ('Boogie') built on Mar  7 2009 15:00:41
    Writing library                  : libebml v0.7.7 + libmatroska v0.8.1
    Video
    ID                               : 1
    Format                           : AVC
    Format/Info                      : Advanced Video Codec
    Format profile                   : High@L3.1
    Format settings, CABAC           : Yes
    Format settings, ReFrames        : 5 frames
    Codec ID                         : V_MPEG4/ISO/AVC
    Duration                         : 42mn 27s
    Bit rate                         : 6 605 Kbps
    Width                            : 1 280 pixels
    Height                           : 720 pixels
    Display aspect ratio             : 16:9
    Frame rate                       : 23.976 fps
    Color space                      : YUV
    Chroma subsampling               : 4:2:0
    Bit depth                        : 8 bits
    Scan type                        : Progressive
    Bits/(Pixel*Frame)               : 0.299
    Stream size                      : 1.91 GiB (82%)
    Title                            : Supernatural S05 E01 - Sympathy for the Devil - Release by uxTuaHgp
    Writing library                  : x264 core 104 r1713 c276662
    Encoding settings                : cabac=1 / ref=5 / deblock=1:-3:-3 / analyse=0x3:0x133 / me=umh / subme=9 / psy=1 / psy_rd=1.00:0.00 / mixed_ref=1 / me_range=24 / chroma_me=1 / trellis=2 / 8x8dct=1 / cqm=0 / deadzone=21,11 / fast_pskip=0 / chroma_qp_offset=-2 / threads=6 / sliced_threads=0 / nr=0 / decimate=0 / interlaced=0 / constrained_intra=0 / bframes=6 / b_pyramid=2 / b_adapt=2 / b_bias=0 / direct=3 / weightb=1 / open_gop=0 / weightp=2 / keyint=250 / keyint_min=23 / scenecut=40 / intra_refresh=0 / rc=2pass / mbtree=0 / bitrate=6605 / ratetol=1.0 / qcomp=0.60 / qpmin=10 / qpmax=51 / qpstep=4 / cplxblur=20.0 / qblur=0.5 / ip_ratio=1.40 / pb_ratio=1.30 / aq=1:1.00
    Language                         : English
    Audio #1
    ID                               : 2
    Format                           : AC-3
    Format/Info                      : Audio Coding 3
    Mode extension                   : CM (complete main)
    Codec ID                         : A_AC3
    Duration                         : 42mn 27s
    Bit rate mode                    : Constant
    Bit rate                         : 192 Kbps
    Channel(s)                       : 2 channels
    Channel positions                : Front: L R
    Sampling rate                    : 48.0 KHz
    Bit depth                        : 16 bits
    Compression mode                 : Lossy
    Stream size                      : 58.3 MiB (2%)
    Title                            : AC3 2.0 @ 192 kbps [Ren-Tv]
    Language                         : Russian
    Audio #2
    ID                               : 3
    Format                           : AC-3
    Format/Info                      : Audio Coding 3
    Mode extension                   : CM (complete main)
    Codec ID                         : A_AC3
    Duration                         : 42mn 27s
    Bit rate mode                    : Constant
    Bit rate                         : 192 Kbps
    Channel(s)                       : 2 channels
    Channel positions                : Front: L R
    Sampling rate                    : 48.0 KHz
    Bit depth                        : 16 bits
    Compression mode                 : Lossy
    Stream size                      : 58.3 MiB (2%)
    Title                            : AC3 2.0 @ 192 kbps [NovaFilm & dub]
    Language                         : Russian
    Audio #3
    ID                               : 4
    Format                           : AC-3
    Format/Info                      : Audio Coding 3
    Mode extension                   : CM (complete main)
    Codec ID                         : A_AC3
    Duration                         : 42mn 27s
    Bit rate mode                    : Constant
    Bit rate                         : 192 Kbps
    Channel(s)                       : 2 channels
    Channel positions                : Front: L R
    Sampling rate                    : 48.0 KHz
    Bit depth                        : 16 bits
    Compression mode                 : Lossy
    Stream size                      : 58.3 MiB (2%)
    Title                            : AC3 2.0 @ 192 kbps [NovaFilm]
    Language                         : Russian
    Audio #4
    ID                               : 5
    Format                           : AC-3
    Format/Info                      : Audio Coding 3
    Mode extension                   : CM (complete main)
    Codec ID                         : A_AC3
    Duration                         : 42mn 27s
    Bit rate mode                    : Constant
    Bit rate                         : 640 Kbps
    Channel(s)                       : 6 channels
    Channel positions                : Front: L C R, Side: L R, LFE
    Sampling rate                    : 48.0 KHz
    Bit depth                        : 16 bits
    Compression mode                 : Lossy
    Stream size                      : 194 MiB (8%)
    Title                            : AC3 5.1 @ 640 kbps
    Language                         : English
    Text #1
    ID                               : 6
    Format                           : UTF-8
    Codec ID                         : S_TEXT/UTF8
    Codec ID/Info                    : UTF-8 Plain Text
    Language                         : English
    Text #2
    ID                               : 7
    Format                           : UTF-8
    Codec ID                         : S_TEXT/UTF8
    Codec ID/Info                    : UTF-8 Plain Text
    Language                         : Russian

    Внимание! Раздача ведётся путём добавления новых серий!

    Внимание! Раздача ведётся путём добавления новых серий; при каждом добавлении создётся новый торрент. Чтобы начать докачку новой серии, пользователям необходимо сделать следующее:
    1) остановить скачивание
    2) удалить старый торрент у себя из клиента (старые серии удалять не надо)
    3) скачать новый торрент и запустить его у себя в клиенте вместо старого, при этом указать клиенту путь в старую папку куда и должно происходить скачивание новых серий.
    Ваш клиент при этом должен произвести хеширование (проверку) старой папки (если не производит сам - помогите ему сделать это), и будет докачивать только те серии которых у вас ещё нет. Старые серии при этом не удаляются, а продолжают раздаваться!
    Eсли вы уже удалили старые серии, то предотвратить повторную закачку старых серий можно, отжав галочку в соответсвующих местах при запуске нового торрента.- Как закачать отдельный файл из торрента или докачать ранее пропущенные файлы торрента!
    -
  • Вы не можете начинать темы
    Вы не можете отвечать на сообщения
    Вы не можете редактировать свои сообщения
    Вы не можете удалять свои сообщения
    Вы не можете голосовать в опросах
    Вы не можете прикреплять файлы к сообщениям
    Вы можете скачивать файлы
    Sitemap