Сверхъестественное / Supernatural / Сезон: 3 / Серии: 1-16 (16) (Роберт Сингер, Филип Сгриккиа) [2008, США, мистика, триллер, ужасы, BDRemux 1080p] Dub (Ren-TV) + MVO (NovaFilm) + Original + Rus Subs (Full, Forced) 

Цитировать
Сезон 1 | Сезон 2 | Сезон 3 | Сезон 4 | Сезон 5 | Сезон 6-Сверхъестественное / Supernatural (Сезон 3)
«Scary Just Got Sexy»
- Год выпуска: 2008
Страна: США
Жанр: мистика, триллер, ужасы
Продолжительность: ~00:40:00 х 16
Перевод:
  • Профессиональный (дублированный) - Ren-TV
  • Профессиональный (многоголосый, закадровый) - NovaFilm
Субтитры:
  • Русские
  • Русские форсированные (на тексты песен) - для серий 1, 4-5, 7-11, 13-14, 16
Автор идеи: Эрик Крипке / Eric Kripke
В ролях: Джаред Падалеки, Дженсен Эклз, Джеффри Дин Морган, Джим Бивер и др
Описание: Сериал рассказывает о приключениях братьев Сэма и Дина Винчестеров, которые путешествуют по Соединённым Штатам на чёрном автомобиле Chevrolet Impala 1967 года, расследуют паранормальные явления, многие из которых основаны на американских городских легендах и фольклоре, и сражаются с порождениями зла, такими как демоны и призраки.
Все раздачи сериала
Качество: BDRemux 1080p
Формат: MKV
Видео кодек: VC-1
Аудио кодек: AC3, MP3
Видео: 1920х1080 (16:9), 23.976 fps, ~16 Мбит/сек, 0.340 bit/pixel
Аудио: Russian, MP3 2.0, 48 KHz, 256 kbps (Дубляж Рен-ТВ)
Аудио 2: Russian, AC3 5.1, 48 KHz, 640 kbps (Голоса студии "Новамедиа")
Аудио 3: English, AC3 5.1, 48 KHz, 640 kbps (оригинальная дорожка)

-

MI

Общее
Уникальный идентификатор : 200007854912574753579622355694419319082 (0x96781C97A470AB8CFD002B8D539A192A)
Полное имя : /Users/igor/Documents/Мои раздачи/Supernatural Season 3 BDRemux/Supernatural S03E01.mkv
Формат : Matroska
Версия формата : Version 4 / Version 2
Размер файла : 4,87 Гбайт
Продолжительность : 39 м.
Общий поток : 17,5 Мбит/сек
Дата кодирования : UTC 2013-12-22 12:35:13
Программа кодирования : mkvmerge v6.2.0 ('Promised Land') built on Apr 28 2013 18:50:30
Библиотека кодирования : libebml v1.3.0 + libmatroska v1.4.0
Видео
Идентификатор : 1
Формат : VC-1
Профиль формата : Advanced@L3
Идентификатор кодека : V_MS/VFW/FOURCC / WVC1
Идентификатор кодека/Подсказка : Microsoft
Продолжительность : 39 м.
Битрейт : 15,6 Мбит/сек
Ширина : 1920 пикселей
Высота : 1080 пикселей
Соотношение сторон : 16:9
Режим частоты кадров : Постоянный
Частота кадров : 23,976 кадра/сек
Субдискретизация насыщенности : 4:2:0
Битовая глубина : 8 бит
Тип развёртки : Прогрессивная
Метод сжатия : С потерями
Бит/(Пиксели*Кадры) : 0.313
Размер потока : 4,34 Гбайт (89%)
Заголовок : S03E01
Default : Да
Forced : Нет
Аудио #1
Идентификатор : 2
Формат : MPEG Audio
Версия формата : Version 1
Профиль формата : Layer 3
Идентификатор кодека : A_MPEG/L3
Идентификатор кодека/Подсказка : MP3
Продолжительность : 39 м.
Вид битрейта : Постоянный
Битрейт : 256 Кбит/сек
Каналы : 2 канала
Частота : 48,0 КГц
Метод сжатия : С потерями
Размер потока : 73,1 Мбайт (1%)
Заголовок : Dubbed RenTV
Язык : Russian
Default : Да
Forced : Нет
Аудио #2
Идентификатор : 3
Формат : AC-3
Формат/Информация : Audio Coding 3
Расширение режима : CM (complete main)
Параметр Endianness формата : Big
Идентификатор кодека : A_AC3
Продолжительность : 39 м.
Вид битрейта : Постоянный
Битрейт : 640 Кбит/сек
Каналы : 6 каналов
Расположение каналов : Front: L C R, Side: L R, LFE
Частота : 48,0 КГц
Битовая глубина : 16 бит
Метод сжатия : С потерями
Размер потока : 183 Мбайт (4%)
Заголовок : MVO NovaFILM AC3
Язык : Russian
Default : Нет
Forced : Нет
Аудио #3
Идентификатор : 4
Формат : AC-3
Формат/Информация : Audio Coding 3
Расширение режима : CM (complete main)
Параметр Endianness формата : Big
Идентификатор кодека : A_AC3
Продолжительность : 39 м.
Вид битрейта : Постоянный
Битрейт : 640 Кбит/сек
Каналы : 6 каналов
Расположение каналов : Front: L C R, Side: L R, LFE
Частота : 48,0 КГц
Битовая глубина : 16 бит
Метод сжатия : С потерями
Размер потока : 183 Мбайт (4%)
Заголовок : English AC3
Язык : English
Default : Нет
Forced : Нет
Текст #1
Идентификатор : 5
Формат : UTF-8
Идентификатор кодека : S_TEXT/UTF8
Идентификатор кодека/Информация : UTF-8 Plain Text
Заголовок : Full Rus Subs
Язык : Russian
Default : Нет
Forced : Нет
Текст #2
Идентификатор : 6
Формат : UTF-8
Идентификатор кодека : S_TEXT/UTF8
Идентификатор кодека/Информация : UTF-8 Plain Text
Заголовок : Songs Only
Язык : Russian
Default : Нет
Forced : Нет

Список серий

1. "Великолепная семерка" / "The Magnificient Seven"
2. "С детьми все в порядке / The Kids Are Alright"
3. "Непруха в Блэк Роке" / "Bad Day at Black Rock"
4. "Город грехов / Sin City"
5. "Сказки на ночь / Bedtime Stories"
6. "Алая заря / Red sky at morning"
7. "Свежая кровь / Fresh Blood"
8. "Очень Сверхъестественное Рождество / A Very Supernatural Christmas"
9. "Охота на Ведьм / Malleus Maleficarum"
10. "Помечтай немного обо мне / Dream a Little Dream of Me"
11. "Заколдованный круг / Mystery Spot"
12. "На войне как на войне / Jus in Bello"
13. "Укротители духов / Ghostfacers"
14. "Звонок с того света / Long-Distance Call"
15. "Время на моей стороне / Time Is On My Side"
16. "Пощады не будет / No Rest for the Wicked"
Вы не можете начинать темы
Вы не можете отвечать на сообщения
Вы не можете редактировать свои сообщения
Вы не можете удалять свои сообщения
Вы не можете голосовать в опросах
Вы не можете прикреплять файлы к сообщениям
Вы можете скачивать файлы
Sitemap