Сверхъестественное / Supernatural / Сезон: 5 / Серии: 1-22 (22) (Роберт Сингер, Филип Сгриккиа) [2009, США, мистика, триллер, ужасы, BDRemux 1080p] Dub (Ren-TV) + 2xMVO (NovaFilm) + Original + Subs (Rus, Eng) 

Цитировать
Сезон 1 | Сезон 2 | Сезон 3 | Сезон 4 | Сезон 5 | Сезон 6-Сверхъестественное / Supernatural (Сезон 5)
«Scary Just Got Sexy»
- Год выпуска: 2009
Страна: США
Жанр: мистика, триллер, ужасы
Продолжительность: ~00:48:00 х 22
Перевод:
  • Профессиональный (полное дублирование) - Ren-Tv
  • Профессиональный (многоголосый, закадровый)x2 - NovaFilm
Субтитры:
  • Русские
  • Английские
Автор идеи: Эрик Крипке / Eric Kripke
В ролях: Джаред Падалеки, Дженсен Эклз, Джеффри Дин Морган, Джим Бивер и др
Описание: Сериал рассказывает о приключениях братьев Сэма и Дина Винчестеров, которые путешествуют по Соединённым Штатам на чёрном автомобиле Chevrolet Impala 1967 года, расследуют паранормальные явления, многие из которых основаны на американских городских легендах и фольклоре, и сражаются с порождениями зла, такими как демоны и призраки.
Все раздачи сериала
Качество: BDRemux 1080p
Формат: MKV
Видео кодек: VC-1
Аудио кодек: AC3
Видео: 1920х1080 (16:9), 23.976 fps, ~17 Мбит/сек, 0.340 bit/pixel
Аудио: Russian, AC3 2.0, 48 KHz, 192 kbps (Дубляж Рен-ТВ)
Аудио 2: Russian, AC3 2.0, 48 KHz, 192 kbps (Голоса официального дубляжа + штатные голоса студии "Новамедиа")
Аудио 3: Russian, AC3 2.0, 48 KHz, 192 kbps (Голоса студии "Новамедиа")
Аудио 4: English, AC3 5.1, 48 KHz, 640 kbps (оригинальная дорожка)

-

MI

General
Unique ID                                : 326083954728211336048801529161011181248 (0xF5517C3B47739910EB113289FEF036C0)
Complete name                            : /Volumes/Media/Мои раздачи/Supernatural Season 5 BDRemux/Supernatural S05E01.mkv
Format                                   : Matroska
Format version                           : Version 2
File size                                : 5.41 GiB
Duration                                 : 42mn 27s
Overall bit rate                         : 18.2 Mbps
Encoded date                             : UTC 2013-02-25 13:48:53
Writing application                      : mkvmerge v5.5.0 ('Healer') built on Apr 25 2012 20:53:43
Writing library                          : libebml v1.2.2 + libmatroska v1.3.0
Video
ID                                       : 1
Format                                   : VC-1
Format profile                           : Advanced@L3
Codec ID                                 : V_MS/VFW/FOURCC / WVC1
Codec ID/Hint                            : Microsoft
Duration                                 : 42mn 27s
Bit rate                                 : 16.7 Mbps
Width                                    : 1 920 pixels
Height                                   : 1 080 pixels
Display aspect ratio                     : 16:9
Frame rate mode                          : Constant
Frame rate                               : 23.976 fps
Chroma subsampling                       : 4:2:0
Bit depth                                : 8 bits
Scan type                                : Progressive
Compression mode                         : Lossy
Bits/(Pixel*Frame)                       : 0.335
Stream size                              : 4.94 GiB (91%)
Default                                  : Yes
Forced                                   : No
Audio #1
ID                                       : 2
Format                                   : AC-3
Format/Info                              : Audio Coding 3
Mode extension                           : CM (complete main)
Format settings, Endianness              : Big
Codec ID                                 : A_AC3
Duration                                 : 42mn 27s
Bit rate mode                            : Constant
Bit rate                                 : 192 Kbps
Channel(s)                               : 2 channels
Channel positions                        : Front: L R
Sampling rate                            : 48.0 KHz
Bit depth                                : 16 bits
Compression mode                         : Lossy
Stream size                              : 58.3 MiB (1%)
Title                                    : AC3 2.0 @ 192 kbps [Ren-Tv]
Language                                 : Russian
Default                                  : Yes
Forced                                   : No
Audio #2
ID                                       : 3
Format                                   : AC-3
Format/Info                              : Audio Coding 3
Mode extension                           : CM (complete main)
Format settings, Endianness              : Big
Codec ID                                 : A_AC3
Duration                                 : 42mn 27s
Bit rate mode                            : Constant
Bit rate                                 : 192 Kbps
Channel(s)                               : 2 channels
Channel positions                        : Front: L R
Sampling rate                            : 48.0 KHz
Bit depth                                : 16 bits
Compression mode                         : Lossy
Stream size                              : 58.3 MiB (1%)
Title                                    : AC3 2.0 @ 192 kbps [NovaFilm & dub]
Language                                 : Russian
Default                                  : No
Forced                                   : No
Audio #3
ID                                       : 4
Format                                   : AC-3
Format/Info                              : Audio Coding 3
Mode extension                           : CM (complete main)
Format settings, Endianness              : Big
Codec ID                                 : A_AC3
Duration                                 : 42mn 27s
Bit rate mode                            : Constant
Bit rate                                 : 192 Kbps
Channel(s)                               : 2 channels
Channel positions                        : Front: L R
Sampling rate                            : 48.0 KHz
Bit depth                                : 16 bits
Compression mode                         : Lossy
Stream size                              : 58.3 MiB (1%)
Title                                    : AC3 2.0 @ 192 kbps [NovaFilm]
Language                                 : Russian
Default                                  : No
Forced                                   : No
Audio #4
ID                                       : 5
Format                                   : AC-3
Format/Info                              : Audio Coding 3
Mode extension                           : CM (complete main)
Format settings, Endianness              : Big
Codec ID                                 : A_AC3
Duration                                 : 42mn 27s
Bit rate mode                            : Constant
Bit rate                                 : 640 Kbps
Channel(s)                               : 6 channels
Channel positions                        : Front: L C R, Side: L R, LFE
Sampling rate                            : 48.0 KHz
Bit depth                                : 16 bits
Compression mode                         : Lossy
Stream size                              : 194 MiB (4%)
Title                                    : AC3 5.1 @ 640 kbps
Language                                 : English
Default                                  : No
Forced                                   : No
Text #1
ID                                       : 6
Format                                   : UTF-8
Codec ID                                 : S_TEXT/UTF8
Codec ID/Info                            : UTF-8 Plain Text
Language                                 : Russian
Default                                  : No
Forced                                   : No
Text #2
ID                                       : 7
Format                                   : UTF-8
Codec ID                                 : S_TEXT/UTF8
Codec ID/Info                            : UTF-8 Plain Text
Language                                 : English
Default                                  : No
Forced                                   : No

Список серий

1 серия - Сочувствие Дьяволу / Sympathy for the Devil
2 серия - С Богом, братцы! / Good God, Y'All
3 серия - Свободным быть тебе и мне / Free to be You and Me
4 серия - Конец / The End
5 серия - Падшие кумиры / Fallen Idols
6 серия - Я верю, дети — наше будущее / I Believe the Children are Our Future
7 серия - Загадочная история Дина Винчестера / The Curious Case of the Dean Winchester
8 серия - Переключая каналы / Changing Channels
9 серия - Настоящие охотники за привидениями / The Real Ghostbusters
10 серия - Оставь всякую надежду / Abandon all Hope
11 серия - Прерванная жизнь, Сэм / Sam, Interrupted
12 серия - Обмен телами / Swap Meat
13 серия - Песня остается прежней / The Song Remains The Same
14 серия - Мой кровавый Валентин / My Bloody Valentine
15 серия - Мёртвые пледов не носят / Dead Men Don't Wear Plaid
16 серия - Обратная сторона Луны / Dark Side Of The Moon
17 серия - Девяносто девять проблем / 99 Problems
18 серия - Назад дороги нет / Point of no Return
19 серия - Молот Богов / Hammer of the Gods
20 серия - Знакомый вам Дьявол / The Devil You Know
21 серия - Две минуты до полуночи / Two Minutes to Midnight
22 серия - Лебединая песня / Swan Song
Вы не можете начинать темы
Вы не можете отвечать на сообщения
Вы не можете редактировать свои сообщения
Вы не можете удалять свои сообщения
Вы не можете голосовать в опросах
Вы не можете прикреплять файлы к сообщениям
Вы можете скачивать файлы
Sitemap