(Political Song / Folk) VA - Trotz alledem: Arbeiterlieder (Вопреки всему: Песни рабочих) - 2005, FLAC (image+.cue), lossless 

Цитировать
Various Artists - Trotz alledem: Arbeiterlieder
Жанр: Political Song / Folk
Страна-производитель диска: Germany
Год издания: 2005
Издатель (лейбл): Edition Barbarossa
Номер по каталогу: EdBa 01440-2
Страна: Germany
Аудиокодек: FLAC (*.flac)
Тип рипа: image+.cue
Битрейт аудио: lossless
Продолжительность: 46:34
Источник (релизер): avax
Наличие сканов в содержимом раздачи: нет
Треклист:
01 Massenchor und Blasorchester - Die Arbeitsmaenner
02 Soldatenchor und Musikkorps des Wachregiments Berlin - Die rote Fahne
03 Massenchor und Blasorchester - Solzialistenmarsch
04 Soldatenchor und Musikkorps des Wachregiments Berlin - Daenischer Sozialistenmarsch
05 Maenner vom Rundfunkchor Leipzig - Brueder zur Sonne zur Freiheit
06 Chor und Blaesergruppe der Kampfgruppe des Staatl. Rundfunkkomitees - Die rote Garde
07 Massenchor und Blasorchester - Die Arbeiter von Wien
08 Soldatenchor und Musikkorps des Wachregiments Berlin - Warschawjanka
09 Soldatenchor und Musikkorps des Wachregiments Berlin - Dem Morgenrot entgegen
10 Chor und Orchester des Erich Weinert Ensembles - Der kleine Trompeter
11 Rundfunkchor Leipzig - Hamburgs Jung-Spartakus-Lied
12 Soldatenchor und Musikkorps des Wachregiments Berlin - Bei Leuna
13 Mitglieder des Grossen Chores des Berliner Rundfunks - Neuestes Streiklied 1903
14 Ernst Busch u. Grosser Chor des Berliner Rundfunks u. Instrumentalgruppe - Einheitsfrontlied
15 Massenchor und Blasorchester - Brueder, seht die rote Fahne
16 Soldatenchor und Musikkorps des Wachregiments Berlin - Bandierra Rossa
17 Rundfunkchor Berlin - Unsterbliche Opfer
18 Grosser Chor des Berliner Rundfunks u. Estradenorchester des Deutschlandsenders - Die Internationale

Лог создания рипа

Exact Audio Copy V1.0 beta 2 from 29. April 2011
EAC extraction logfile from 10. March 2012, 23:49
Various / Trotz alledem - Arbeiterlieder
Used drive : PIONEER BD-RW BDR-206 Adapter: 2 ID: 3
Read mode : SecureUtilize accurate stream : YesDefeat audio cache : YesMake use of C2 pointers : No
Read offset correction : 667Overread into Lead-In and Lead-Out : NoFill up missing offset samples with silence : YesDelete leading and trailing silent blocks : NoNull samples used in CRC calculations : YesUsed interface : Native Win32 interface for Win NT & 2000
Used output format : User Defined EncoderSelected bitrate : 896 kBit/sQuality : HighAdd ID3 tag : NoCommand line compressor : C:\Program Files\FLAC\flac.exeAdditional command line options : -5 -T "Artist=%artist%" -T "Title=%title%" -T "Album=%albumtitle%" -T "Date=%year%" -T "Tracknumber=%tracknr%" -T "Genre=%genre%" %source% -o %dest%
TOC of the extracted CD
Track | Start | Length | Start sector | End sector --------------------------------------------------------- 1 | 0:00.00 | 2:14.65 | 0 | 10114 2 | 2:14.65 | 2:47.73 | 10115 | 22712 3 | 5:02.63 | 2:14.20 | 22713 | 32782 4 | 7:17.08 | 2:31.68 | 32783 | 44175 5 | 9:49.01 | 1:55.07 | 44176 | 52807 6 | 11:44.08 | 3:37.37 | 52808 | 69119 7 | 15:21.45 | 2:37.04 | 69120 | 80898 8 | 17:58.49 | 3:09.07 | 80899 | 95080 9 | 21:07.56 | 3:11.65 | 95081 | 109470 10 | 24:19.46 | 2:37.51 | 109471 | 121296 11 | 26:57.22 | 2:23.03 | 121297 | 132024 12 | 29:20.25 | 1:28.37 | 132025 | 138661 13 | 30:48.62 | 2:26.17 | 138662 | 149628 14 | 33:15.04 | 2:25.73 | 149629 | 160576 15 | 35:41.02 | 2:53.46 | 160577 | 173597 16 | 38:34.48 | 2:30.10 | 173598 | 184857 17 | 41:04.58 | 2:07.44 | 184858 | 194426 18 | 43:12.27 | 3:21.56 | 194427 | 209557
Range status and errors
Selected range
Filename I:\=== VINYL RIPS ===\=== EAC===\X FRESH RIP\Various - Trotz alledem - Arbeiterlieder.wav
Copy aborted
End of status report
==== Log checksum 0C50DB7AA669AF200F2FD703A7F839406B9991714EFFA72217EF3E2A9A303BB6 ====
------------------------------------------------------------
Exact Audio Copy V1.0 beta 2 from 29. April 2011
EAC extraction logfile from 10. March 2012, 23:57
Various / Trotz alledem - Arbeiterlieder
Used drive : PIONEER BD-RW BDR-206 Adapter: 2 ID: 3
Read mode : SecureUtilize accurate stream : YesDefeat audio cache : YesMake use of C2 pointers : No
Read offset correction : 667Overread into Lead-In and Lead-Out : NoFill up missing offset samples with silence : YesDelete leading and trailing silent blocks : NoNull samples used in CRC calculations : YesUsed interface : Native Win32 interface for Win NT & 2000
Used output format : User Defined EncoderSelected bitrate : 896 kBit/sQuality : HighAdd ID3 tag : NoCommand line compressor : C:\Program Files\FLAC\flac.exeAdditional command line options : -5 -T "Artist=%artist%" -T "Title=%title%" -T "Album=%albumtitle%" -T "Date=%year%" -T "Tracknumber=%tracknr%" -T "Genre=%genre%" %source% -o %dest%
TOC of the extracted CD
Track | Start | Length | Start sector | End sector --------------------------------------------------------- 1 | 0:00.00 | 2:14.65 | 0 | 10114 2 | 2:14.65 | 2:47.73 | 10115 | 22712 3 | 5:02.63 | 2:14.20 | 22713 | 32782 4 | 7:17.08 | 2:31.68 | 32783 | 44175 5 | 9:49.01 | 1:55.07 | 44176 | 52807 6 | 11:44.08 | 3:37.37 | 52808 | 69119 7 | 15:21.45 | 2:37.04 | 69120 | 80898 8 | 17:58.49 | 3:09.07 | 80899 | 95080 9 | 21:07.56 | 3:11.65 | 95081 | 109470 10 | 24:19.46 | 2:37.51 | 109471 | 121296 11 | 26:57.22 | 2:23.03 | 121297 | 132024 12 | 29:20.25 | 1:28.37 | 132025 | 138661 13 | 30:48.62 | 2:26.17 | 138662 | 149628 14 | 33:15.04 | 2:25.73 | 149629 | 160576 15 | 35:41.02 | 2:53.46 | 160577 | 173597 16 | 38:34.48 | 2:30.10 | 173598 | 184857 17 | 41:04.58 | 2:07.44 | 184858 | 194426 18 | 43:12.27 | 3:21.56 | 194427 | 209557
Range status and errors
Selected range
Filename I:\=== VINYL RIPS ===\=== EAC===\X FRESH RIP\Various - Trotz alledem - Arbeiterlieder.wav
Peak level 98.0 % Extraction speed 7.2 X Range quality 99.9 % Copy CRC 919E00B5 Copy OK
No errors occurred
AccurateRip summary
Track 1 not present in databaseTrack 2 not present in databaseTrack 3 not present in databaseTrack 4 not present in databaseTrack 5 not present in databaseTrack 6 not present in databaseTrack 7 not present in databaseTrack 8 not present in databaseTrack 9 not present in databaseTrack 10 not present in databaseTrack 11 not present in databaseTrack 12 not present in databaseTrack 13 not present in databaseTrack 14 not present in databaseTrack 15 not present in databaseTrack 16 not present in databaseTrack 17 not present in databaseTrack 18 not present in database
None of the tracks are present in the AccurateRip database
End of status report
==== Log checksum BE318D5B690936DD96623D9B684716B6B093046CF8FC42C0BB9DFF85C5CB8173 ====

Лог проверки качества

AUDIOCHECKER v2.0 beta (build 457) - by Dester - opdester@freemail.hu~~~~~~~~~~~~~~~~~~~~~~~~~~~~~~~~~~-=== DO NOT EDIT THIS FILE! ===-
Path: ...\VA - Trotz alledem - Arbeiterlieder {Germany 2005}
1 -=- Various - Trotz alledem - Arbeiterlieder.wav -=- CDDA (100%)
55240820
Вы не можете начинать темы
Вы не можете отвечать на сообщения
Вы не можете редактировать свои сообщения
Вы не можете удалять свои сообщения
Вы не можете голосовать в опросах
Вы не можете прикреплять файлы к сообщениям
Вы можете скачивать файлы
!ВНИМАНИЕ!

Сайт не предоставляет электронные версии произведений, а занимается лишь коллекционированием и каталогизацией ссылок, присылаемых и публикуемых на форуме нашими читателями. Если вы являетесь правообладателем какого-либо представленного материала и не желаете, чтобы ссылка на него находилась в нашем каталоге, свяжитесь с нами, и мы незамедлительно удалим ее. Файлы для обмена на трекере предоставлены пользователями сайта, и администрация не несет ответственности за их содержание. Просьба не заливать файлы, защищенные авторскими правами, а также файлы нелегального содержания!

Искали программы, игры, дополнения, музыка mp3, аниме, аудио книги, журналы? Добро пожаловать на свободный торрент трекер Torrents, у нас можно скачать бесплатно, без смс и регистрации и прочих ограничений лучшие, отборные сборки программ, игр. Скачать торрентом не составит труда даже не опытному пользователю. Раздачи ежедневно обновляются, только лучшие и качественные раздачи, подробные описания и скриншоты. Огромная коллекция программ для работы со звуком, графикой, дизайном, а так же множество плагинов и инструментов к ним с подробной инструкцией и рекомендациями. Прошивки для навигаторов, карты. Разнообразные игры, для Windows, Linux. В коллекцие есть и старые игры любых жанров, Rpg, Action, Shooter, strategy Множество дополнений, модификаций, сценариев для популярных игр в жанре экш, рпг, гонки, стратегии, логические игры. Множество аддонов и сценариев для Microsoft Flight Simulator Большая коллекция книг, учебников. Если нет возможности купить печатное издание - смело скачивайте цифровую версию книги или, быть может, журнала. Не любите читать - можно загрузить бесплатно аудикнигу. Для веб дизайнеров и программистов так же найдется множество специализированного софта, таких как: редакторы с подсветкой, среды программирования, компоненты, системы управления базами данных, разнообразные скрипты и шаблоны. Не так давно у нас появился материал для автолюбителей и владельцев мото - оригинальные и неоригинальные каталоги запчастей, книги и журналы по ремонту и обслуживанию, видеоуроки, статьи по чип тюнингу, прошивкам. Процедура получения контента элементарная, достаточно просто скачать торрент файл и добавить его в загрузку в вашем торрент клиенте. Если у вас нет специального торрент клиента, вы можете его скачать у нас.

Sitemap