Сверхъестественное / Supernatural / Сезон: 8 / Серии: 1-23 (23) (Эрик Крипке, Роберт Сингер) [2012-2013, Ужасы, фэнтези, триллер, драма, детектив, BDRip 720p] Dub (Kravec - Records [Пятница!]) + 3хMVO (NovaFilm,LostFilm,M&M[UkrDub]) + Original 

Цитировать
Сверхъестественное / Supernatural / 8 сезон, 1-23 серии
Год выпуска: 2012-2013
Страна: США
Жанр: Ужасы, фэнтези, триллер, драма, детектив
Продолжительность: ~00:41:00-Режиссёр: Эрик Крипке, Роберт Сингер
В ролях: Джаред Падалеки, Дженсен Эклс, Джим Бивер, Миша Коллинз, Джеффри Дин Морган, Женевьев Падалеки, Марк Шеппард, Синди Сэмпсон, Саманта Феррис, Митч Пилледжи-Описание: Сериал рассказывает о приключениях братьев Сэма и Дина Винчестеров, которые путешествуют по Соединённым Штатам на чёрном автомобиле Chevrolet Impala 1967 года, расследуют паранормальные явления, многие из которых основаны на американских городских легендах и фольклоре, и сражаются с порождениями зла, такими как демоны и призраки.-Ссылка на предыдущие и альтернативные раздачи: ЗДЕСЬ
Сэмпл: СКАЧАТЬ-Качество: BDRip (720p)
Формат: MKV
Видео кодек: H.264
Аудио кодек: AC3-Видео: AVC / 1280x720 / 4000 kbps / 23.976 fps / 0.181 bit/pixel-Аудио 1 (ДБ): DD, 48.000 kHz, 2 ch, 256 kbps | Kravec - Records (Пятница!)
Аудио 2 (ПМ): DD, 48.000 kHz, 6 ch, 384 kbps | NovaFilm
Аудио 3 (ПМ): DD, 48.000 kHz, 6 ch, 384 kbps | LostFilm
Аудио 4 (ПМ): DD, 48.000 kHz, 2 ch, 192 kbps | MonsterMix&UkrDub
Аудио 5: DD, 48.000 kHz, 6 ch, 384 kbps | Original -Субтитры: Russian(Forced), Russian(Fargate), English

Над релизом работали

Заказ на синхронизацию дорог сделал: 13_Drakula_13
Запись со спутника предоставили: 13_Drakula_13, #Antisnl#, Beer kolesik Drinkers
Синхронизировал дубляж под WEB-DLRip: Martokc (cage.nikol)
Синхронизировал дубляж под BDRip: 13_Drakula_13

Поиск и сведение аудиодорожек 2,3,4: 13_Drakula_13
Дорожки 2 и 3, а также форсированные субтитры взяты с рипа vlaluk'a
Дорожки 2,3 получены наложением выделенных голосов на центр декодированного AC3

Роли дублировали

Главные герои

Джаред Падалеки (Сэм Винчестер) - Вадим Прохоров
Дженсен Эклс (Дин Винчестер) - Сергей Куприянов
Джим Бивер (Бобби Сингер) - Андрей Кравец
Миша Коллинз (Кастиэль/Джимми Новак) - Максим Сергеев
Осрик Чау (Кевин Трэн) - Иван Чабан
Марк Шеппард (Кроули/Фергус Родерик Маклауд) - Станислав Концевич

Второстепенные герои

Марк Пеллегрино (Люцифер) - Дмитрий Стрелков
Джеймс Патрик Стюарт (Дик Роман) - Олег Фёдоров
Алона Тал (Джо Харвелл) - Варвара Чабан
Лорен Том (Линда Трэн) - Светлана Кузнецова
Кертис Армстронг (Метатрон) - Валерий Захарьев
Ким Родс (Джоди Миллс) - Марина Гладкая
Тай Олссон (Бенни) - Сергей Куницкий
Элейна Хаффман (Абаддон) - Светлана Кузнецова
Лиэн Балабан (Амелия Ричардсон) - Марина Гладкая
Рэйчел Майнер (Мег) - Екатерина Кабашова
Аманда Таппинг (Наоми) - Мария Цветкова-Овсянникова
Джули МакНивен (Анна Милтон) - Виктория Слуцкая
Тамо Пеникетт (Гадриель) - Олег Фёдоров
Ричард Спейт мл. (Габриель) - Стас Войнич
Стивен Уильямс (Руфус Турнер) - Максим Сергеев
Бенито Мартинес (Эдгар) - Валерий Соловьев
Женевьев Падалеки (Руби) - Мария Цветкова-Овсянникова
А.Дж. Бакли (Эд Зеддмори) - Игорь Сергеев
Трэвис Уэстер (Гарри Спанглер) - Андрей Лёвин
DJ Куаллс (Гарт Фитцджеральд IV) - Дмитрий Стрелков
Кевин МакНэлли (Фрэнк Деверо) - Максим Сергеев
Фелиша Дэй (Чарли Брэдбери) - Виктория Слуцкая
Тайлер Джонстон (Самандриэль) - Игорь Сергеев
Гил МакКинни (Генри Винчестер) - Дмитрий Стрелков
Эмили Перкинс (Бекки Розен) - Юлия Рудина
Рик Уорси (Альфа Вампир) - Борис Хасанов

Список серий

01 - Поговорим о Кевине / We Need to Talk About Kevin
02 - Вам слово, мамочка / What's Up, Tiger Mommy?
03 - Сердечные муки / Heartache
04 - Укушенный / Bitten
05 - Брат по крови / Blood Brother
06 - Утоли мои печали / Southern Comfort
07 - Кусочек Кевина / A Little Slice of Kevin
08 - Отважный охотник / Hunteri Heroici
09 - Гражданин Клык / Citizen Fang
10 - На перепутье / Torn and Frayed
11 - Ролевая игра и настоящая девчонка / LARP and the Real Girl
12 - А время летит / As Time Goes By
13 - Все ненавидят Гитлера / Everybody Hates Hitler
14 - Метод проб и ошибок / Trial and Error
15 - Человек собаке друг...и даже больше / Man's Best Friend With Benefits
16 - Вспоминая Титанов / Remember the Titans
17 - Прощай, странник / Goodbye Stranger
18 - Братаны и ботаны / Freaks and Geeks
19 - Перевозчик / Taxi Driver
20 - Игромания / Pac-Man Fever
21 - Великий беглец / The Great Escapist
22 - Дела минувшие / Clip Show
23 - Жертва / Sacrifice

MediaInfo

Format : Matroska
File size : 1.70 GiB
Duration : 42mn 29s
Overall bit rate : 5 711 Kbps
Movie name : Supernatural [Season 8] (2012) - Supernatural by 13_Drakula_13 and Matrokc
Encoded date : UTC 2011-04-11 09:48:04
Writing application : mkvmerge v2.5.3 ('Boogie') built on Mar 7 2009 15:00:41
Writing library : libebml v1.2.1 + libmatroska v1.1.1
Video
ID : 1
Format : AVC
Format/Info : Advanced Video Codec
Format profile : High@L3.1
Format settings, CABAC : Yes
Format settings, ReFrames : 5 frames
Codec ID : V_MPEG4/ISO/AVC
Duration : 42mn 29s
Bit rate : 3 998 Kbps
Width : 1 280 pixels
Height : 720 pixels
Display aspect ratio : 16:9
Frame rate : 23.976 fps
Color space : YUV
Chroma subsampling : 4:2:0
Bit depth : 8 bits
Scan type : Progressive
Bits/(Pixel*Frame) : 0.181
Stream size : 1.19 GiB (70%)
Title : Season 8, Episode 01: We Need to Talk About Kevin / Поговорим о Кевине - Supernatural by 13_Drakula_13 and Matrokc
Writing library : x264 core 68 r1184M 88b35c2
Encoding settings : cabac=1 / ref=5 / deblock=1:-2:-2 / analyse=0x3:0x133 / me=umh / subme=9 / psy_rd=1.0:0.0 / mixed_ref=1 / me_range=24 / chroma_me=1 / trellis=2 / 8x8dct=1 / cqm=0 / deadzone=21,11 / chroma_qp_offset=-2 / threads=6 / nr=0 / decimate=0 / mbaff=0 / bframes=6 / b_pyramid=1 / b_adapt=2 / b_bias=0 / direct=3 / wpredb=1 / keyint=250 / keyint_min=25 / scenecut=40 / rc=2pass / bitrate=6817 / ratetol=2.0 / qcomp=0.60 / qpmin=10 / qpmax=51 / qpstep=4 / cplxblur=20.0 / qblur=0.5 / ip_ratio=1.40 / pb_ratio=1.30 / aq=1:1.00
Language : English
Audio #1
ID : 2
Format : AC-3
Format/Info : Audio Coding 3
Mode extension : CM (complete main)
Format settings, Endianness : Big
Muxing mode : Header stripping
Codec ID : A_AC3
Duration : 42mn 29s
Bit rate mode : Constant
Bit rate : 256 Kbps
Channel(s) : 2 channels
Channel positions : Front: L R
Sampling rate : 48.0 KHz
Bit depth : 16 bits
Compression mode : Lossy
Stream size : 77.8 MiB (4%)
Title : DD 2.0 @ 256 kbps @ Kravec - Records (Пятница!)
Language : Russian
Default : Yes
Forced : No
Audio #2
ID : 3
Format : AC-3
Format/Info : Audio Coding 3
Mode extension : CM (complete main)
Format settings, Endianness : Big
Muxing mode : Header stripping
Codec ID : A_AC3
Duration : 42mn 29s
Bit rate mode : Constant
Bit rate : 384 Kbps
Channel(s) : 6 channels
Channel positions : Front: L C R, Side: L R, LFE
Sampling rate : 48.0 KHz
Bit depth : 16 bits
Compression mode : Lossy
Stream size : 117 MiB (7%)
Title : DD 5.1 @ 384 kbps @ NovaFilm
Language : Russian
Default : No
Forced : No
Audio #3
ID : 4
Format : AC-3
Format/Info : Audio Coding 3
Mode extension : CM (complete main)
Format settings, Endianness : Big
Muxing mode : Header stripping
Codec ID : A_AC3
Duration : 42mn 29s
Bit rate mode : Constant
Bit rate : 384 Kbps
Channel(s) : 6 channels
Channel positions : Front: L C R, Side: L R, LFE
Sampling rate : 48.0 KHz
Bit depth : 16 bits
Compression mode : Lossy
Stream size : 117 MiB (7%)
Title : DD 5.1 @ 384 kbps @ LostFilm
Language : Russian
Default : No
Forced : No
Audio #4
ID : 5
Format : AC-3
Format/Info : Audio Coding 3
Mode extension : CM (complete main)
Format settings, Endianness : Big
Muxing mode : Header stripping
Codec ID : A_AC3
Duration : 42mn 29s
Bit rate mode : Constant
Bit rate : 192 Kbps
Channel(s) : 2 channels
Channel positions : Front: L R
Sampling rate : 48.0 KHz
Bit depth : 16 bits
Compression mode : Lossy
Stream size : 58.4 MiB (3%)
Title : DD 2.0 @ 192 kbps @ MonsterMix&UkrDub
Language : Ukrainian
Default : No
Forced : No
Audio #5
ID : 6
Format : AC-3
Format/Info : Audio Coding 3
Mode extension : CM (complete main)
Format settings, Endianness : Big
Muxing mode : Header stripping
Codec ID : A_AC3
Duration : 42mn 29s
Bit rate mode : Constant
Bit rate : 384 Kbps
Channel(s) : 6 channels
Channel positions : Front: L C R, Side: L R, LFE
Sampling rate : 48.0 KHz
Bit depth : 16 bits
Compression mode : Lossy
Stream size : 117 MiB (7%)
Title : DD 5.1 @ 384 kbps @ Original
Language : English
Default : No
Forced : No
Text #1
ID : 7
Format : ASS
Codec ID : S_TEXT/ASS
Codec ID/Info : Advanced Sub Station Alpha
Compression mode : Lossless
Title : Russian @ ASS @ Forced
Language : Russian
Default : Yes
Forced : No
Text #2
ID : 8
Format : UTF-8
Codec ID : S_TEXT/UTF8
Codec ID/Info : UTF-8 Plain Text
Title : Russian @ SRT @ Fargate
Language : Russian
Default : No
Forced : No
Text #3
ID : 9
Format : UTF-8
Codec ID : S_TEXT/UTF8
Codec ID/Info : UTF-8 Plain Text
Title : English @ SRT
Language : English
Default : No
Forced : No

Помощь.Синхронизация

Кто нуждается в помощи по синхронизации аудиодорожки (-ек)
ПИШИТЕ В ЛС!
Могу синхронизировать (дубляж, многоголоску, оригинальные дорожки и т.д.)
ПО ПОВОДУ ПИШИТЕ В ЛС!

ВНИМАНИЕ!!!
Некоторые синхронизации в зависимости от трудности и продолжительности (концерты, представления и т.д.)
ОСУЩЕСТВЛЯЮТСЯ ЗА ДЕНЬГИ! (ПЛАТНЫМ ОБРАЗОМ)
Дорожки свожу под любое видео [ WEB-DL (720р) | Blu-Ray Remux (1080p) | BDRip (720p) и т.д.] и любой канал [5.1 | 2.0 и т.д.]

Скриншоты

Вы не можете начинать темы
Вы не можете отвечать на сообщения
Вы не можете редактировать свои сообщения
Вы не можете удалять свои сообщения
Вы не можете голосовать в опросах
Вы не можете прикреплять файлы к сообщениям
Вы можете скачивать файлы
Sitemap