Сверхъестественное / Supernatural / Сезон: 7 / Серии: 1-23 (23) (Роберт Сингер, Филип Сгриккиа) [2011, США, мистика, ужасы, драма, WEB-DL 720p / BDRip 720p] MVO (NovaFilm) 

Цитировать
--Сверхъестественное / Supernatural-- Год выпуска: 2011
Страна: США | The CW
Жанр: мистика, ужасы, драма
Продолжительность: ~ 42 минуты
Перевод: Профессиональный (многоголосый, закадровый) - NovaFilm
Субтитры: Русские
Режиссёр: Роберт Сингер-В ролях: Jared Padalecki, Jensen Ackles, Misha Collins, Jim Beaver, Mark Sheppard, Kim Rhodes, Kevin McNally, James Patrick Stuart и др.-Описание: Два брата Дин и Сэм Винчестеры путешествуют по стране в поисках своего пропавшего отца, встречая на своём пути разную нечисть и сражаясь с ней.
Когда братья были совсем маленькими, их мать погибла при ужасных и необъяснимых обстоятельствах. С тех пор отец Дина и Сэма посвящает себя поискам той нечисти по вине которой погибла его любимая жена. Сыновья становятся ему помощниками. Повзрослев Сэм решает отдалиться от постоянной борьбы со сверхъестественным и начать нормальную жизнь, поступить в университет. Но в его жизнь врывается брат Дин, который сообщает, что отец пропал и от него нет вестей уже несколько дней. Сэм решает согласиться на небольшое путешествие, но только на пару дней. Вот только пар дней для этого дела окажется мало...
Им не суждено жить нормальной жизнью. Их жизнь это борьба с нечистой силой. Они должны отыскать своего отца и узнать тайну гибели их матери.-Качество: WEB-DL 720p / BDRip 720p
Формат: MKV
Видео кодек: H.264
Аудио кодек: AC3
Видео: 1280x720 (16:9), 23.976 fps, ~4000 / 5000 kbps, ~0.180 bit/pixel
Аудио Rus: 48 kHz, 6 ch, ~384 / 640 kbps |NovaFilm|
Аудио Eng: 48 kHz, 6 ch, ~384 / 640 kbps |Original|-
Озвучка: NovaFilm
Перевод: Александр Кошелев
Редакторы: McGee, Beara-Все раздачи сериала / Сэмпл / ImDB / Кинопоиск-Список серий
  • Встречайте нового босса / Meet the New Boss
  • Привет, жестокий мир! / Hello, Cruel World
  • Соседка / The Girl Next Door
  • Защищая свою жизнь / Defending Your Life
  • Заткнись, Доктор Фил / Shut Up, Dr. Phil
  • Убийственное Чтиво / Slash Fiction
  • Менталисты / The Mentalists
  • Седьмой Сезон, Пришло Время Свадьбы! / Season Seven, Time for a Wedding!

    MediaInfo

    WEB-DL 720p

    Общее
    Формат : Matroska
    Версия формата : Version 2
    Размер файла : 1,45 Гбайт
    Продолжительность : 42 м.
    Общий поток : 4879 Кбит/сек
    Дата кодирования : UTC 2011-10-15 12:26:04
    Программа кодирования : mkvmerge v4.0.0 ('The Stars were mine') сборка от Jun 6 2010 16:18:42
    Библиотека кодирования : libebml v1.0.0 + libmatroska v1.0.0
    Видео
    Идентификатор : 1
    Формат : AVC
    Формат/Информация : Advanced Video Codec
    Профиль формата : High@L3.1
    Параметр CABAC формата : Нет
    Параметр ReFrames формата : 2 кадра
    Параметры GOP формата : M=2, N=26
    Идентификатор кодека : V_MPEG4/ISO/AVC
    Продолжительность : 42 м.
    Битрейт : 4014 Кбит/сек
    Ширина : 1280 пикс.
    Высота : 720 пикс.
    Соотношение сторон : 16:9
    Частота кадров : 23,976 кадр/сек
    Цветовое пространство : YUV
    Подвыборка цветности : 4:2:0
    Битовая глубина : 8 бит
    Тип развёртки : Прогрессивная
    Бит/(Пиксели*Кадры) : 0.182
    Размер потока : 1,19 Гбайт (82%)
    Заголовок : Supernatural - Season 7, Episode 1: Meet the New Boss ("Встречайте Нового Босса")
    Язык : English
    Основные цвета : BT.709-5, BT.1361, IEC 61966-2-4, SMPTE RP177
    Характеристики трансфера : BT.709-5, BT.1361
    Коэффициенты матрицы : BT.709-5, BT.1361, IEC 61966-2-4 709, SMPTE RP177
    Аудио #1
    Идентификатор : 2
    Формат : AC-3
    Формат/Информация : Audio Coding 3
    Расширение режима : CM (complete main)
    Идентификатор кодека : A_AC3
    Продолжительность : 42 м.
    Вид битрейта : Постоянный
    Битрейт : 384 Кбит/сек
    Каналы : 6 каналов
    Расположение каналов : Front: L C R, Side: L R, LFE
    Частота : 48,0 КГц
    Битовая глубина : 16 бит
    Метод сжатия : С потерями
    Размер потока : 117 Мбайт (8%)
    Заголовок : Dolby Digital 5.1 @ 384 kbps
    Язык : Russian
    Аудио #2
    Идентификатор : 3
    Формат : AC-3
    Формат/Информация : Audio Coding 3
    Расширение режима : CM (complete main)
    Идентификатор кодека : A_AC3
    Продолжительность : 42 м.
    Вид битрейта : Постоянный
    Битрейт : 384 Кбит/сек
    Каналы : 6 каналов
    Расположение каналов : Front: L C R, Side: L R, LFE
    Частота : 48,0 КГц
    Битовая глубина : 16 бит
    Метод сжатия : С потерями
    Размер потока : 117 Мбайт (8%)
    Заголовок : Dolby Digital 5.1 @ 384 kbps
    Язык : English
    Текст
    Идентификатор : 4
    Формат : ASS
    Идентификатор кодека : S_TEXT/ASS
    Идентификатор кодека/Информация : Advanced Sub Station Alpha
    Метод сжатия : Без потерь
    Заголовок : Forced
    Язык : Russian

    BDRip 720p

    Общее
    Формат : Matroska
    Версия формата : Version 2
    Размер файла : 1,78 Гбайт
    Продолжительность : 42 м.
    Общий поток : 6026 Кбит/сек
    Дата кодирования : UTC 2012-11-05 16:50:59
    Программа кодирования : mkvmerge v4.0.0 ('The Stars were mine') сборка от Jun 6 2010 16:18:42
    Библиотека кодирования : libebml v1.0.0 + libmatroska v1.0.0
    Attachment : Yes / Yes
    Видео
    Идентификатор : 1
    Формат : AVC
    Формат/Информация : Advanced Video Codec
    Профиль формата : High@L4.0
    Параметр CABAC формата : Да
    Параметр ReFrames формата : 9 кадров
    Идентификатор кодека : V_MPEG4/ISO/AVC
    Продолжительность : 42 м.
    Битрейт : 4626 Кбит/сек
    Ширина : 1280 пикселей
    Высота : 720 пикселей
    Соотношение сторон : 16:9
    Режим частоты кадров : Постоянный
    Частота кадров : 23,976 кадра/сек
    Цветовое пространство : YUV
    Субдискретизация насыщенности : 4:2:0
    Битовая глубина : 8 бит
    Тип развёртки : Прогрессивная
    Бит/(Пиксели*Кадры) : 0.209
    Размер потока : 1,37 Гбайт (77%)
    Заголовок : Supernatural - Season 7, Episode 15: Repo Man ("Потрошитель")
    Библиотека кодирования : x264 core 125 r2200 999b753
    Настройки программы : cabac=1 / ref=9 / deblock=1:-2:-2 / analyse=0x3:0x133 / me=umh / subme=10 / psy=1 / psy_rd=1.00:0.00 / mixed_ref=1 / me_range=32 / chroma_me=1 / trellis=2 / 8x8dct=1 / cqm=0 / deadzone=21,11 / fast_pskip=0 / chroma_qp_offset=-2 / threads=6 / lookahead_threads=1 / sliced_threads=0 / nr=0 / decimate=0 / interlaced=0 / bluray_compat=0 / constrained_intra=0 / bframes=8 / b_pyramid=2 / b_adapt=2 / b_bias=0 / direct=3 / weightb=1 / open_gop=0 / weightp=2 / keyint=240 / keyint_min=23 / scenecut=40 / intra_refresh=0 / rc=crf / mbtree=0 / crf=17.2 / qcomp=0.60 / qpmin=0 / qpmax=69 / qpstep=4 / ip_ratio=1.40 / pb_ratio=1.30 / aq=1:0.80
    Язык : English
    Default : Да
    Forced : Нет
    Аудио #1
    Идентификатор : 2
    Формат : AC-3
    Формат/Информация : Audio Coding 3
    Расширение режима : CM (complete main)
    Параметр Endianness формата : Big
    Идентификатор кодека : A_AC3
    Продолжительность : 42 м.
    Вид битрейта : Постоянный
    Битрейт : 640 Кбит/сек
    Каналы : 6 каналов
    Расположение каналов : Front: L C R, Side: L R, LFE
    Частота : 48,0 КГц
    Битовая глубина : 16 бит
    Метод сжатия : С потерями
    Размер потока : 194 Мбайт (11%)
    Заголовок : Dolby Digital 5.1 @ 640 kbps
    Язык : Russian
    Default : Да
    Forced : Нет
    Аудио #2
    Идентификатор : 3
    Формат : AC-3
    Формат/Информация : Audio Coding 3
    Расширение режима : CM (complete main)
    Параметр Endianness формата : Big
    Идентификатор кодека : A_AC3
    Продолжительность : 42 м.
    Вид битрейта : Постоянный
    Битрейт : 640 Кбит/сек
    Каналы : 6 каналов
    Расположение каналов : Front: L C R, Side: L R, LFE
    Частота : 48,0 КГц
    Битовая глубина : 16 бит
    Метод сжатия : С потерями
    Размер потока : 194 Мбайт (11%)
    Заголовок : Dolby Digital 5.1 @ 640 kbps
    Язык : English
    Default : Нет
    Forced : Нет
    Текст
    Идентификатор : 4
    Формат : ASS
    Идентификатор кодека : S_TEXT/ASS
    Идентификатор кодека/Информация : Advanced Sub Station Alpha
    Метод сжатия : Без потерь
    Заголовок : Forced
    Язык : Russian
    Default : Да
    Forced : Да
    Внимание! Раздача ведётся путём добавления новых серий.Внимание! Раздача ведётся путём добавления новых серий; при каждом добавлении создётся новый торрент. Чтобы начать докачку новой серии, пользователям необходимо сделать следующее:
    • Остановить скачивание.
    • Удалить старый торрент у себя из клиента (старые серии удалять не надо).
    • Скачать новый торрент и запустить его у себя в клиенте вместо старого, при этом указать клиенту путь в старую папку куда и должно происходить скачивание новых серий.
    Ваш клиент при этом должен произвести хеширование (проверку) старой папки (если не производит сам - помогите ему сделать это), и будет докачивать только те серии которых у вас ещё нет. Старые серии при этом не удаляются, а продолжают раздаваться!
    Eсли вы уже удалили старые серии, то предотвратить повторную закачку старых серий можно, отжав галочку в соответсвующих местах при запуске нового торрента. По возможности, желательно не удалять старые серии как можно дольше чтобы релизёр не столько продолжал раздавать старые серии, а смог сконцентрироваться на новых.
    Как закачать отдельный файл из торрента или докачать ранее пропущенные файлы торрента!
  • Вы не можете начинать темы
    Вы не можете отвечать на сообщения
    Вы не можете редактировать свои сообщения
    Вы не можете удалять свои сообщения
    Вы не можете голосовать в опросах
    Вы не можете прикреплять файлы к сообщениям
    Вы можете скачивать файлы
    Sitemap